ExtraTorrent.ag - The Largest Bittorent System Login   |    Register
ExtraTorrent.ag > Categories > Movies torrents > HD torrents


Browse Movies torrents

Her.2013.720p.BluRay.x264.LLG torrent


Download torrent: Download Her.2013.720p.BluRay.x264.LLG torrent Magnet link Bookmark Torrent: Her.2013.720p.BluRay.x264.LLG Her.2013.720p.BluRay.x264.LLG torrent | if not working, try instead: Magnet Link
Info hash: F0FF3A4F50836D2E6DAA16C007D22ED83E8BE0D9
Category: Categories > Movies torrents > HD torrents
Trackers:
2    View all torrent trackers >
Health:
 seeds: 96 ,  leechers: 34 |  Update >
Torrent language:  
Total Size: 1.20 GB
Torrent status: Added by trusted uploader Added by trusted uploader Trusted Uploader Site Friend Superman Sun
Uploader: Trusted Uploader Site Friend Superman Sun
Torrent added: 2020-09-15 18:03:46

Download Her.2013.720p.BluRay.x264.LLG torrent if not working, try downloading torrent using Download Her.2013.720p.BluRay.x264.LLG via Magnet Link




Torrent Description

Quote:




******************************Thumbnbil:**********************




******************************Screenshots:********************

screenshot 1

screenshot 2

screenshot 3

screenshot 4

screenshot 5

screenshot 6

screenshot 7

screenshot 8

screenshot 9

screenshot 0


******************************************************

18+.Her.2013.720p.BluRay.x264.LLG.mp4
Format : MPEG-4
Format profile : Base Media
Codec ID : isom (isom/iso2/avc1/mp41)
File size : 1.17 GiB
Duration : 2 h 5 min
Overall bit rate mode : Variable
Overall bit rate : 1 327 kb/s
Writing application : Lavf57.83.100

Video
ID : 1
Format : AVC
Format/Info : Advanced Video Codec
Format profile : [email protected]
Format settings : CABAC / 1 Ref Frames
Format settings, CABAC : Yes
Format settings, Reference frames : 1 frame
Codec ID : avc1
Codec ID/Info : Advanced Video Coding
Duration : 2 h 5 min
Bit rate mode : Variable
Bit rate : 1 227 kb/s
Maximum bit rate : 3 600 kb/s
Width : 1 280 pixels
Height : 692 pixels
Display aspect ratio : 1.85:1
Frame rate mode : Constant
Frame rate : 23.976 (23976/1000) FPS
Color space : YUV
Chroma subsampling : 4:2:0
Bit depth : 8 bits
Scan type : Progressive
Bits/(Pixel*Frame) : 0.058
Stream size : 1.08 GiB (92%)
Codec configuration box : avcC

Audio
ID : 2
Format : AAC LC
Codec ID : mp4a-40-2
Duration : 2 h 5 min
Bit rate mode : Constant
Bit rate : 96.0 kb/s
Channel(s) : 2 channels
Channel layout : L R
Sampling rate : 48.0 kHz
Frame rate : 46.875 FPS (1024 SPF)
Compression mode : Lossy
Stream size : 86.7 MiB (7%)
Language : English
Default : Yes
Alternate group : 1

1




********************************************************





#LifeLongg -> To avoid fakes, ALWAYS check that the torrent was added on ExtraTorrent.ag by LifeLongg

https://extratorrent.ag/



Download Her.2013.720p.BluRay.x264.LLG torrent


Comments (please add your comment)
No comments



Home - Browse Torrents - Upload Torrent - Stat - Forum - FAQ - Login
ExtraTorrent.ag is in compliance with copyrights
2006-2020 ExtraTorrent.ag