ExtraTorrent.ag - The Largest Bittorent System Login   |    Register
ExtraTorrent.ag > Categories > Music torrents > Concerts torrents


Browse Music torrents

Grateful Dead, Spectrum Philadelphia, PA 1995-03-17, 18, 19 Sbd Flac16 torrent


Download torrent: Download Grateful Dead, Spectrum Philadelphia, PA 1995-03-17, 18, 19 Sbd Flac16 torrent Magnet link Bookmark Torrent: Grateful Dead, Spectrum Philadelphia, PA 1995-03-17, 18, 19 Sbd Flac16 Grateful Dead, Spectrum Philadelphia, PA 1995-03-17, 18, 19 Sbd Flac16 torrent | if not working, try instead: Magnet Link
Info hash: C5A7270498BE27C7ABE0F1D8030951C24F56AA1D
Category: Categories > Music torrents > Concerts torrents
Trackers:
5    View all torrent trackers >
Health:
 seeds: 7 ,  leechers: 1 |  Update >
Torrent language:  
Total Size: 2.80 GB
Torrent status: Added by trusted uploader Added by trusted uploader Trusted Uploader Site Friend Superman Sun
Uploader: Trusted Uploader Site Friend Superman Sun
Torrent added: 2020-09-15 15:27:16

Download Grateful Dead, Spectrum Philadelphia, PA 1995-03-17, 18, 19 Sbd Flac16 torrent if not working, try downloading torrent using Download Grateful Dead, Spectrum Philadelphia, PA 1995-03-17, 18, 19 Sbd Flac16 via Magnet Link




Torrent Description

This is a tagged version of shnid: 97658

Grateful Dead - March 17, 1995
The Spectrum - Philadelphia, PA

Recording Info:
SBD -> Dat -> Cassette Master -> Dat

Transfer Info:
Dat -> Samplitude Professional v10.2 -> FLAC
(3 Discs Audio / 2 Discs FLAC)

All Transfers and Mastering By Charlie Miller
[email protected]
February 27, 2009

Notes:
-- Set 2 is seamless
-- There is some occasional quiet static from the master Dat

Set 1:
d1t01 - Here Comes Sunshine
d1t02 - Wang Dang Doodle
d1t03 - Peggy-O
d1t04 - Queen Jane Approximately
d1t05 - Lazy River Road
d1t06 - Eternity
d1t07 - Loose Lucy

Set 2:
d2t01 - China Cat Sunflower ->
d2t02 - I Know You Rider
d2t03 - Samba In The Rain
d2t04 - Truckin' ->
d2t05 - New Speedway Boogie ->
d2t06 - Drums ->
d3t01 - Space ->
d3t02 - All Along The Watchtower ->
d3t03 - Standing On The Moon ->
d3t04 - Sugar Magnolia

Encore:
d3t05 - Lucy In The Sky With Diamonds

Tagging notes:
Show information is embedded within the header
of each flac file. It will display on any player
capable of directly playing flac files.
If converted to wav during processing, all tags
will be stripped, however audio data will remain
unaffected. If you must transcode to a lossy format,
do so directly Flac > Lossy.
Use st5 to validate audio integrity.
Md5 values will change if tagging is altered.
A Mills 4/18/13


SHNTOOL OUTPUT:
length expanded size cdr WAVE problems filename
6:21.13 67239020 --- -- ----- gd95-03-17d1t01.wav
8:14.61 87285116 --- -- ----- gd95-03-17d1t02.wav
7:46.04 82211852 --- -- ----- gd95-03-17d1t03.wav
7:40.66 81299276 --- -- ----- gd95-03-17d1t04.wav
9:08.28 96733100 --- -- ----- gd95-03-17d1t05.wav
9:28.26 100256396 --- -- ----- gd95-03-17d1t06.wav
7:20.72 77785388 --- -- ----- gd95-03-17d1t07.wav
6:03.61 64176716 --- -- ----- gd95-03-17d2t01.wav
5:29.35 58117964 --- -- ----- gd95-03-17d2t02.wav
7:31.57 79690508 --- -- ----- gd95-03-17d2t03.wav
9:40.19 102356732 --- -- ----- gd95-03-17d2t04.wav
12:26.43 131695580 --- -- ----- gd95-03-17d2t05.wav
13:46.30 145777004 --- -- ----- gd95-03-17d2t06.wav
20:06.02 212743148 --- -- ----- gd95-03-17d3t01.wav
8:47.17 93002828 --- -- ----- gd95-03-17d3t02.wav
8:30.54 90091052 --- -- ----- gd95-03-17d3t03.wav
8:14.46 87249836 --- -- ----- gd95-03-17d3t04.wav
7:48.56 82686956 --- -- ----- gd95-03-17d3t05.wav
164:26.15 1740398472 B (totals for 18 files)

gd95-03-17d1t01.flac:1bf386a247486724d2a3c3f1686678d6
gd95-03-17d1t02.flac:374fba061672ddeadcb6a73b86455093
gd95-03-17d1t03.flac:4c4990f2dd55938fe692fb4662a00b61
gd95-03-17d1t04.flac:92c83541469a86518fbe792ea02c24cd
gd95-03-17d1t05.flac:c856cf17049b2d4659e691f6a5c21cca
gd95-03-17d1t06.flac:c233faa85671a4e3506d3d728943c84f
gd95-03-17d1t07.flac:cd247bf8a6d6fe5b5698063219b5b093
gd95-03-17d2t01.flac:2c47f29cdc9428af913106545dc52d7d
gd95-03-17d2t02.flac:5d88e9fa25d26635e73a711da827d5d1
gd95-03-17d2t03.flac:c3085ede0d430b0e015101e0778ba765
gd95-03-17d2t04.flac:a2e7e3421d6e7163086e976a75125380
gd95-03-17d2t05.flac:b4e65c8d45cb416983c7286986c19839
gd95-03-17d2t06.flac:c8248ce4de78bd125c874bd0bb828c9e
gd95-03-17d3t01.flac:7e06710a889879b2d5100f925e7e65fb
gd95-03-17d3t02.flac:f393c96e97917adaf5f2ff8b33cf3d3a
gd95-03-17d3t03.flac:ce29c0ff90f6856cb14eb329e6e2bc59
gd95-03-17d3t04.flac:f9d9034e02c5cee55ca00a611c044059
gd95-03-17d3t05.flac:fc998450f8a12a269e5c430c2ed8e0d8

This is a tagged version of shnid: 97659

Grateful Dead - March 18, 1995
The Spectrum - Philadelphia, PA

Recording Info:
SBD -> Dat -> Cassette Master -> Dat

Transfer Info:
Dat -> Samplitude Professional v10.2 -> FLAC
(2 Discs Audio / 2 Discs FLAC)

All Transfers and Mastering By Charlie Miller
[email protected]
February 27, 2009

Notes:
-- Disc change is seamless

Set 1:
d1t01 - Hell In A Bucket
d1t02 - West L.A. Fadeaway
d1t03 - El Paso
d1t04 - Ramble On Rose
d1t05 - Just Like Tom Thumb's Blues
d1t06 - Jack-A-Roe
d1t07 - The Promised Land

Set 2:
d1t08 - It's All Too Much ->
d1t09 - Iko Iko
d2t01 - Playing In The Band ->
d2t02 - Uncle John's Band ->
d2t03 - Drums ->
d2t04 - Space ->
d2t05 - The Last Time ->
d2t06 - Visions Of Johanna ->
d2t07 - One More Saturday Night

Encore:
d2t08 - Rain

Tagging notes:
Show information is embedded within the header
of each flac file. It will display on any player
capable of directly playing flac files.
If converted to wav during processing, all tags
will be stripped, however audio data will remain
unaffected. If you must transcode to a lossy format,
do so directly Flac > Lossy.
Use st5 to validate audio integrity.
Md5 values will change if tagging is altered.
A Mills 4/18/13


SHNTOOL OUTPUT:
length expanded size cdr WAVE problems filename
10:19.22 109243388 --- -- ----- gd95-03-18d1t01.wav
10:31.65 111461324 --- -- ----- gd95-03-18d1t02.wav
5:39.48 59912540 --- -- ----- gd95-03-18d1t03.wav
10:27.05 110614604 --- -- ----- gd95-03-18d1t04.wav
5:54.14 62478572 --- -- ----- gd95-03-18d1t05.wav
4:43.54 50048252 --- -- ----- gd95-03-18d1t06.wav
4:32.70 48145484 --- -- ----- gd95-03-18d1t07.wav
6:46.46 71726636 --- -- ----- gd95-03-18d1t08.wav
11:36.08 122793260 --- -- ----- gd95-03-18d1t09.wav
11:00.60 116565164 --- -- ----- gd95-03-18d2t01.wav
12:46.16 135160076 --- -- ----- gd95-03-18d2t02.wav
11:51.24 125476892 --- -- ----- gd95-03-18d2t03.wav
15:10.22 160575788 --- -- ----- gd95-03-18d2t04.wav
6:25.00 67914044 --- -- ----- gd95-03-18d2t05.wav
10:33.55 111790604 --- -- ----- gd95-03-18d2t06.wav
5:33.74 58915292 --- -- ----- gd95-03-18d2t07.wav
3:59.16 42197276 --- -- ----- gd95-03-18d2t08.wav
147:51.74 1565019196 B (totals for 17 files)

gd95-03-18d1t01.flac:e285f5092a750f9aafaf28cd6a9114a3
gd95-03-18d1t02.flac:a10f3631973b295072fb7e89b23524a7
gd95-03-18d1t03.flac:6401e305117c6d7a25259073b0e98b50
gd95-03-18d1t04.flac:ada1936db6780f68ebc4e2b53f4aa411
gd95-03-18d1t05.flac:0520c396ec6be55767ae2007ae50f4b0
gd95-03-18d1t06.flac:5eb4471bf25b9f1dd771980ff7cb174b
gd95-03-18d1t07.flac:3492a354bc6f9a8061e793042b557e46
gd95-03-18d1t08.flac:a1f1be879c8a481422f279ee84056ef4
gd95-03-18d1t09.flac:28db895f033daaeee672d1fa471f71de
gd95-03-18d2t01.flac:5889e73b0fe18331b0fdc252135a05ad
gd95-03-18d2t02.flac:42e16f97b807e931df0465d1a3ab0194
gd95-03-18d2t03.flac:6885383594c999a2e397429477fcad44
gd95-03-18d2t04.flac:0f6cde108ff65c7733739994a79ac68d
gd95-03-18d2t05.flac:62fd129ed1122c6abb4b68aab082cf8b
gd95-03-18d2t06.flac:f3d0cb68c7f0450e595d4d99c86253ab
gd95-03-18d2t07.flac:bd29cb782ef062bfca0aecc46c1907c3
gd95-03-18d2t08.flac:08469e037350cd087c3a2d7c27921d1c

This is a tagged version of shnid: 136858

Grateful Dead - March 19, 1995
The Spectrum - Philadelphia, PA

Recording Info:
SBD -> Dat -> Cassette Master -> Dat (48k)

Transfer Info:
Dat (Tascam DA-20) -> Tascam DA-3000 -> Samplitude Professional v11.2.1 -> FLAC/48k
(1 DVD FLAC)

All Transfers and Mastering By Charlie Miller
[email protected]
September 15, 2016

Set 1:
01 - Alabama Getaway
02 - Walkin' Blues
03 - So Many Roads
04 - Easy Answers
05 - Don't Ease Me In
06 - Unbroken Chain

Set 2:
07 - Samson And Delilah
08 - Way To Go Home
09 - Crazy Fingers ->
10 - Corrina ->
11 - Matilda ->
12 - Drums ->
13 - Space ->
14 - I Need A Miracle ->
15 - Stella Blue ->
16 - Not Fade Away

Encore:
17 - Brokedown Palace

Tagging notes:
Show information is embedded within the header of each flac file.
It will display on any player capable of directly playing flac files.
If converted to wav during processing, all tags will be stripped,
however audio data will remain unaffected.
If you must transcode to a lossy format, do so directly Flac > Lossy.
Use ffp to validate audio integrity.
Md5 values will change if tagging is altered.
A Mills 4/11/17

SHNTOOL OUTPUT:
length expanded size cdr WAVE problems fmt ratio filename
5:47.350 66691336 B cxx -- ---xx flac 0.6662 01 Alabama Getaway.flac
7:26.135 85657960 B cxx -- ---xx flac 0.6103 02 Walkin' Blues.flac
8:19.820 95965548 B cxx -- ---xx flac 0.6164 03 So Many Roads.flac
6:59.205 80487360 B cxx -- ---xx flac 0.6733 04 Easy Answers.flac
4:01.306 46330820 B cxx -- ---xx flac 0.6216 05 Don't Ease Me In.flac
6:09.913 71023420 B cxx -- ---xx flac 0.6326 06 Unbroken Chain.flac
8:38.329 99519240 B cxx -- ---xx flac 0.6333 07 Samson And Delilah.flac
6:29.461 74776564 B cxx -- ---xx flac 0.6402 08 Way To Go Home.flac
9:41.045 111560728 B cxx -- ---xx flac 0.6104 09 Crazy Fingers.flac
12:00.570 138349392 B cxx -- ---xx flac 0.6356 10 Corrina.flac
4:18.093 49553912 B cxx -- ---xx flac 0.5977 11 Mathilda.flac
14:31.223 167274888 B cxx -- ---xx flac 0.5720 12 Drums.flac
13:40.775 157588920 B cxx -- ---xx flac 0.5395 13 Space.flac
4:38.949 53558316 B cxx -- ---xx flac 0.6259 14 I Need A Miracle.flac
7:45.242 89326508 B cxx -- ---xx flac 0.5887 15 Stella Blue.flac
8:38.712 99592768 B cxx -- ---xx flac 0.6035 16 Not Fade Away.flac
4:52.965 56249404 B cxx -- ---xx flac 0.5896 17 Brokedown Palace.flac
133:59.096 1543507084 B 0.6093 (17 files)

01 Alabama Getaway.flac:afaceb2a968ef28438aac871e81be89b
02 Walkin' Blues.flac:fb1b2206e5955f528e66f10303b10a79
03 So Many Roads.flac:0d905d5888333e4e3e947cfc6f09f38b
04 Easy Answers.flac:eb276d7222624bc0a99e8af08dd51b67
05 Don't Ease Me In.flac:d7635efacadef9c338cb96d5fcd3b736
06 Unbroken Chain.flac:4e9587ea7c0452126b3eaedcfbf597cc
07 Samson And Delilah.flac:55f7ff27ae79e183710dd18d2d7293b2
08 Way To Go Home.flac:10ff5d257553ea6464a8084841b6e188
09 Crazy Fingers.flac:74d5a95e4ee81ed62aff8b806e6903f0
10 Corrina.flac:0ab56d009c4a135a92bd5b8a9350f7fb
11 Mathilda.flac:d9f4fd5f9d279825c6a9af5233826025
12 Drums.flac:9334dd6f4ec458f2f52d7998dd9e1ced
13 Space.flac:6bef8080bb13750c0fcb300405047d5e
14 I Need A Miracle.flac:3d54edf0a4864b402f5598f1982b5ac1
15 Stella Blue.flac:7d8fa1a8f6a81c094690cf2ec63bc731
16 Not Fade Away.flac:efa83ccc3f3bae250df737583cd7c12e
17 Brokedown Palace.flac:46bf0e0f38bb2dbd62bf1a8a4513dc28



#mmjr -> To avoid fakes, ALWAYS check that the torrent was added on ExtraTorrent.ag by mmjr

https://extratorrent.ag/



Download Grateful Dead, Spectrum Philadelphia, PA 1995-03-17, 18, 19 Sbd Flac16 torrent


Comments (please add your comment)
No comments



Home - Browse Torrents - Upload Torrent - Stat - Forum - FAQ - Login
ExtraTorrent.ag is in compliance with copyrights
2006-2020 ExtraTorrent.ag