ExtraTorrent.ag - The Largest Bittorent System Login   |    Register
ExtraTorrent.ag > Categories > Adult / Porn torrents > Video torrents


Browse Adult / Porn torrents

Francesca.Le.Is.A.Hotwife.3.XXX.DVDRip.x264-ExtremlymTorrents torrent


Download torrent: Download Francesca.Le.Is.A.Hotwife.3.XXX.DVDRip.x264-ExtremlymTorrents torrent Magnet link Bookmark Torrent: Francesca.Le.Is.A.Hotwife.3.XXX.DVDRip.x264-ExtremlymTorrents Francesca.Le.Is.A.Hotwife.3.XXX.DVDRip.x264-ExtremlymTorrents torrent | if not working, try instead: Magnet Link
Info hash: 4DA6E528D4CE6F2F294ACE21F2D2CF47446D2A08
Category: Categories > Adult / Porn torrents > Video torrents
Trackers:
16    View all torrent trackers >
Health:
 seeds: 0 ,  leechers: 0 |  Update >
Torrent language:  
Total Size: 2.00 GB
Torrent status: Added by trusted uploader Added by trusted uploader Trusted Uploader Site Friend Superman Sun
Uploader: Trusted Uploader Site Friend Superman Sun
Torrent added: 2020-08-01 12:59:18

Download Francesca.Le.Is.A.Hotwife.3.XXX.DVDRip.x264-ExtremlymTorrents torrent if not working, try downloading torrent using Download Francesca.Le.Is.A.Hotwife.3.XXX.DVDRip.x264-ExtremlymTorrents via Magnet Link




Torrent Description


https://extremlymtorrents.ws/file.php?id=3395045

[redtube]https://www.redtube.com/29011861[/redtube]





[MediaInfo]General
Complete name : ExtremlymTorrents.ws\Francesca.Le.Is.A.Hotwife.3.XXX.DVDRip.x264-ExtremlymTorrents.ws.mp4
Format : MPEG-4
Format profile : Base Media
Codec ID : isom (isom)
File size : 1.98 GiB
Duration : 2 h 44 min
Overall bit rate mode : Variable
Overall bit rate : 1 728 kb/s
Encoded date : UTC 2020-07-24 09:00:55
Tagged date : UTC 2020-07-24 09:00:55

Video
ID : 1
Format : AVC
Format/Info : Advanced Video Codec
Format profile : [email protected]
Format settings : CABAC / 5 Ref Frames
Format settings, CABAC : Yes
Format settings, Reference frames : 5 frames
Codec ID : avc1
Codec ID/Info : Advanced Video Coding
Duration : 2 h 44 min
Bit rate : 1 552 kb/s
Maximum bit rate : 3 492 kb/s
Width : 720 pixels
Height : 406 pixels
Display aspect ratio : 16:9
Frame rate mode : Constant
Frame rate : 29.970 (29970/1000) FPS
Original frame rate : 29.970 (30000/1001) FPS
Color space : YUV
Chroma subsampling : 4:2:0
Bit depth : 8 bits
Scan type : Progressive
Bits/(Pixel*Frame) : 0.177
Stream size : 1.78 GiB (90%)
Writing library : x264 core 160 r3000 33f9e14
Encoding settings : cabac=1 / ref=5 / deblock=1:0:0 / analyse=0x3:0x113 / me=hex / subme=8 / psy=1 / psy_rd=1.00:0.00 / mixed_ref=1 / me_range=16 / chroma_me=1 / trellis=2 / 8x8dct=1 / cqm=0 / deadzone=21,11 / fast_pskip=0 / chroma_qp_offset=-2 / threads=13 / lookahead_threads=2 / sliced_threads=0 / nr=0 / decimate=1 / interlaced=0 / bluray_compat=0 / constrained_intra=0 / bframes=3 / b_pyramid=2 / b_adapt=1 / b_bias=0 / direct=3 / weightb=1 / open_gop=0 / weightp=2 / keyint=300 / keyint_min=29 / scenecut=40 / intra_refresh=0 / rc_lookahead=50 / rc=crf / mbtree=1 / crf=19.0 / qcomp=0.60 / qpmin=0 / qpmax=69 / qpstep=4 / ip_ratio=1.40 / aq=1:1.00
Encoded date : UTC 2020-07-24 03:58:06
Tagged date : UTC 2020-07-24 09:01:00
Codec configuration box : avcC

Audio
ID : 2
Format : AAC LC
Format/Info : Advanced Audio Codec Low Complexity
Codec ID : mp4a-40-2
Duration : 2 h 44 min
Bit rate mode : Variable
Bit rate : 171 kb/s
Maximum bit rate : 198 kb/s
Channel(s) : 2 channels
Channel layout : L R
Sampling rate : 48.0 kHz
Frame rate : 46.875 FPS (1024 SPF)
Compression mode : Lossy
Stream size : 201 MiB (10%)
Encoded date : UTC 2020-07-24 03:27:05
Tagged date : UTC 2020-07-24 09:01:00



[/MediaInfo]



#ecs99 -> To avoid fakes, ALWAYS check that the torrent was added on ExtraTorrent.ag by ecs99

https://extratorrent.ag/



Download Francesca.Le.Is.A.Hotwife.3.XXX.DVDRip.x264-ExtremlymTorrents torrent


Comments (please add your comment)
No comments



Home - Browse Torrents - Upload Torrent - Stat - Forum - FAQ - Login
ExtraTorrent.ag is in compliance with copyrights
2006-2020 ExtraTorrent.ag