ExtraTorrent.ag - The Largest Bittorent System Login   |    Register
ExtraTorrent.ag > Categories > Adult / Porn torrents > Video torrents


Browse Adult / Porn torrents

Tapping.The.Twins.XXX.DVDRip.x264-ExtremlymTorrents torrent


Download torrent: Download Tapping.The.Twins.XXX.DVDRip.x264-ExtremlymTorrents torrent Magnet link Bookmark Torrent: Tapping.The.Twins.XXX.DVDRip.x264-ExtremlymTorrents Tapping.The.Twins.XXX.DVDRip.x264-ExtremlymTorrents torrent | if not working, try instead: Magnet Link
Info hash: 4CEDE136A816504B033C9546961B2B3B09745D4A
Category: Categories > Adult / Porn torrents > Video torrents
Trackers:
16    View all torrent trackers >
Health:
 seeds: 0 ,  leechers: 0 |  Update >
Torrent language:  
Total Size: 1.40 GB
Torrent status: Added by trusted uploader Added by trusted uploader Trusted Uploader Site Friend Superman Sun
Uploader: Trusted Uploader Site Friend Superman Sun
Torrent added: 2020-08-01 12:59:17

Download Tapping.The.Twins.XXX.DVDRip.x264-ExtremlymTorrents torrent if not working, try downloading torrent using Download Tapping.The.Twins.XXX.DVDRip.x264-ExtremlymTorrents via Magnet Link




Torrent Description



https://extremlymtorrents.ws/file.php?id=3395053




[MediaInfo]General
Complete name : ExtremlymTorrents.ws\Tapping.The.Twins.XXX.DVDRip.x264-ExtremlymTorrents.ws.mp4
Format : MPEG-4
Format profile : Base Media
Codec ID : isom (isom)
File size : 1.45 GiB
Duration : 2 h 5 min
Overall bit rate mode : Variable
Overall bit rate : 1 654 kb/s
Encoded date : UTC 2020-07-23 16:51:07
Tagged date : UTC 2020-07-23 16:51:07

Video
ID : 1
Format : AVC
Format/Info : Advanced Video Codec
Format profile : [email protected]
Format settings : CABAC / 5 Ref Frames
Format settings, CABAC : Yes
Format settings, Reference frames : 5 frames
Codec ID : avc1
Codec ID/Info : Advanced Video Coding
Duration : 2 h 5 min
Bit rate : 1 507 kb/s
Maximum bit rate : 6 575 kb/s
Width : 704 pixels
Height : 404 pixels
Display aspect ratio : 16:9
Frame rate mode : Constant
Frame rate : 23.976 (24000/1001) FPS
Color space : YUV
Chroma subsampling : 4:2:0
Bit depth : 8 bits
Scan type : Progressive
Bits/(Pixel*Frame) : 0.221
Stream size : 1.32 GiB (91%)
Writing library : x264 core 161 r3018 db0d417
Encoding settings : cabac=1 / ref=5 / deblock=1:0:0 / analyse=0x3:0x113 / me=hex / subme=8 / psy=1 / psy_rd=1.00:0.00 / mixed_ref=1 / me_range=16 / chroma_me=1 / trellis=2 / 8x8dct=1 / cqm=0 / deadzone=21,11 / fast_pskip=0 / chroma_qp_offset=-2 / threads=6 / lookahead_threads=1 / sliced_threads=0 / nr=0 / decimate=1 / interlaced=0 / bluray_compat=0 / constrained_intra=0 / bframes=3 / b_pyramid=2 / b_adapt=1 / b_bias=0 / direct=3 / weightb=1 / open_gop=0 / weightp=2 / keyint=240 / keyint_min=23 / scenecut=40 / intra_refresh=0 / rc_lookahead=50 / rc=crf / mbtree=1 / crf=19.0 / qcomp=0.60 / qpmin=0 / qpmax=69 / qpstep=4 / vbv_maxrate=17500 / vbv_bufsize=17500 / crf_max=0.0 / nal_hrd=none / filler=0 / ip_ratio=1.40 / aq=1:1.00
Encoded date : UTC 2020-07-22 22:02:38
Tagged date : UTC 2020-07-23 16:51:19
Codec configuration box : avcC

Audio
ID : 2
Format : AAC LC
Format/Info : Advanced Audio Codec Low Complexity
Codec ID : mp4a-40-2
Duration : 2 h 5 min
Bit rate mode : Variable
Bit rate : 144 kb/s
Maximum bit rate : 195 kb/s
Channel(s) : 2 channels
Channel layout : L R
Sampling rate : 48.0 kHz
Frame rate : 46.875 FPS (1024 SPF)
Compression mode : Lossy
Stream size : 128 MiB (9%)
Encoded date : UTC 2020-07-22 22:03:40
Tagged date : UTC 2020-07-23 16:51:19


[/MediaInfo]



#ecs99 -> To avoid fakes, ALWAYS check that the torrent was added on ExtraTorrent.ag by ecs99

https://extratorrent.ag/



Download Tapping.The.Twins.XXX.DVDRip.x264-ExtremlymTorrents torrent


Comments (please add your comment)
No comments



Home - Browse Torrents - Upload Torrent - Stat - Forum - FAQ - Login
ExtraTorrent.ag is in compliance with copyrights
2006-2020 ExtraTorrent.ag