ExtraTorrent.ag - The Largest Bittorent System Login   |    Register
ExtraTorrent.ag > Categories > Movies torrents > Dubbed /Dual Audio torrents


Browse Movies torrents

Vijetha 2020 Hindi Dubbed 1080p Web-DL x264 AAC [TMB] torrent


Download torrent: Download Vijetha 2020 Hindi Dubbed 1080p Web-DL x264 AAC [TMB] torrent Magnet link Bookmark Torrent: Vijetha 2020 Hindi Dubbed 1080p Web-DL x264 AAC [TMB] Vijetha 2020 Hindi Dubbed 1080p Web-DL x264 AAC [TMB] torrent | if not working, try instead: Magnet Link
Info hash: 31F475E375A3E20CADBB16F488E257F9762B4E66
Category: Categories > Movies torrents > Dubbed /Dual Audio torrents
Trackers:
17    View all torrent trackers >
Health:
 seeds: 554 ,  leechers: 262 |  Update >
Total Size: 1.30 GB
Torrent status: Added by trusted uploader Added by trusted uploader Trusted Uploader Site Friend Superman Sun
Uploader: Trusted Uploader Site Friend Superman Sun
Torrent added: 2020-02-13 20:36:36

Download Vijetha 2020 Hindi Dubbed 1080p Web-DL x264 AAC [TMB] torrent if not working, try downloading torrent using Download Vijetha 2020 Hindi Dubbed 1080p Web-DL x264 AAC [TMB] via Magnet Link




Torrent Description











General
Complete name : Vijetha 2020 Hindi Dubbed 1080p Web-DL x264 AAC [TMB].mkv
Format : Matroska
Format version : Version 4
File size : 1.35 GiB
Duration : 1 h 55 min
Overall bit rate : 1 671 kb/s

Video
Format : AVC
Format/Info : Advanced Video Codec
Format profile : [email protected]
Format settings : CABAC / 3 Ref Frames
Format settings, CABAC : Yes
Format settings, Reference : 3 frames
Codec ID : V_MPEG4/ISO/AVC
Duration : 1 h 55 min
Bit rate : 1 541 kb/s
Width : 1 920 pixels
Height : 1 080 pixels
Display aspect ratio : 16:9
Frame rate mode : Constant
Frame rate : 25.000 FPS
Color space : YUV
Chroma subsampling : 4:2:0
Bit depth : 8 bits
Scan type : Progressive
Bits/(Pixel*Frame) : 0.030
Stream size : 1.24 GiB (92%)

Audio
Format : AAC LC
Format/Info : Advanced Audio Codec Low Complexity
Codec ID : A_AAC-2
Duration : 1 h 55 min
Bit rate : 128 kb/s
Channel(s) : 2 channels
Channel layout : L R
Sampling rate : 44.1 kHz
Frame rate : 43.066 FPS (1024 SPF)
Compression mode : Lossy
Delay relative to video : 12 ms
Stream size : 106 MiB (8%)


Uploaded & Shared by @TMB

Seeding 24x7... Extreme Seeding...



Enjoy!



#TeamTMB -> To avoid fakes, ALWAYS check that the torrent was added on ExtraTorrent.ag by TeamTMB

https://extratorrent.ag/



Download Vijetha 2020 Hindi Dubbed 1080p Web-DL x264 AAC [TMB] torrent


Comments (please add your comment)
1
posted by wowsex (2020-02-14 07:08:36)
wowsex avatar Tired of ordinary porn? Visit our website - crazyxxx.ga





Home - Browse Torrents - Upload Torrent - Stat - Forum - FAQ - Login
ExtraTorrent.ag is in compliance with copyrights
2006-2018 ExtraTorrent.ag