ExtraTorrent.ag - The Largest Bittorent System Login   |    Register
ExtraTorrent.ag > Categories > Movies torrents > HEVC/x265 torrents


Browse Movies torrents

Midway (2019) (1080p BluRay x265 HEVC 10bit TrueHD 7.1 Qman) [UTR] torrent


Download torrent: Download Midway (2019) (1080p BluRay x265 HEVC 10bit TrueHD 7.1 Qman) [UTR] torrent Magnet link Bookmark Torrent: Midway (2019) (1080p BluRay x265 HEVC 10bit TrueHD 7.1 Qman) [UTR] Midway (2019) (1080p BluRay x265 HEVC 10bit TrueHD 7.1 Qman) [UTR] torrent | if not working, try instead: Magnet Link
Info hash: DD62A6C7331C4E0541265A0DD08FD70EF3EC88F6
Category: Categories > Movies torrents > HEVC/x265 torrents
Trackers:
5    View all torrent trackers >
Health:
 seeds: 75 ,  leechers: 21 |  Update >
Torrent language:  
Total Size: 17.70 GB
Torrent status: Added by trusted uploader Added by trusted uploader Trusted Uploader Site Friend Superman Sun
Uploader: Trusted Uploader Site Friend Superman Sun
Torrent added: 2020-02-13 18:41:09

Download Midway (2019) (1080p BluRay x265 HEVC 10bit TrueHD 7.1 Qman) [UTR] torrent if not working, try downloading torrent using Download Midway (2019) (1080p BluRay x265 HEVC 10bit TrueHD 7.1 Qman) [UTR] via Magnet Link




Torrent Description


Media Information

Media Information

Code:

General
Format : Matroska
Format version : Version 4 / Version 2
File size : 17.7 GiB
Duration : 2 h 18 min
Overall bit rate mode : Variable
Overall bit rate : 18.3 Mb/s
Encoded date : UTC 2020-02-12 12:13:53
Writing application : mkvmerge v41.0.0 ('Smarra') 64-bit
Writing library : libebml v1.3.9 + libmatroska v1.5.2

Video
ID : 1
Format : HEVC
Format/Info : High Efficiency Video Coding
Format profile : Main [email protected]@Main
Codec ID : V_MPEGH/ISO/HEVC
Duration : 2 h 18 min
Bit rate : 15.1 Mb/s
Width : 1 920 pixels
Height : 804 pixels
Display aspect ratio : 2.40:1
Frame rate mode : Constant
Frame rate : 23.976 (24000/1001) FPS
Color space : YUV
Chroma subsampling : 4:2:0
Bit depth : 10 bits
Bits/(Pixel*Frame) : 0.407
Stream size : 14.6 GiB (82%)
Writing library : x265 3.2+23-52135ffd9bcd:[Windows][GCC 9.2.1][64 bit] 10bit
Encoding settings : cpuid=1111039 / frame-threads=4 / numa-pools=16 / wpp / no-pmode / no-pme / no-psnr / no-ssim / log-level=2 / input-csp=1 / input-res=1920x804 / interlace=0 / total-frames=199105 / level-idc=0 / high-tier=1 / uhd-bd=0 / ref=4 / no-allow-non-conformance / no-repeat-headers / annexb / no-aud / no-hrd / info / hash=0 / no-temporal-layers / open-gop / min-keyint=23 / keyint=250 / gop-lookahead=0 / bframes=8 / b-adapt=2 / b-pyramid / bframe-bias=0 / rc-lookahead=80 / lookahead-slices=4 / scenecut=40 / hist-scenecut=0 / radl=0 / no-splice / no-intra-refresh / ctu=64 / min-cu-size=8 / rect / no-amp / max-tu-size=32 / tu-inter-depth=1 / tu-intra-depth=1 / limit-tu=0 / rdoq-level=2 / dynamic-rd=0.00 / no-ssim-rd / signhide / no-tskip / nr-intra=0 / nr-inter=0 / no-constrained-intra / no-strong-intra-smoothing / max-merge=3 / limit-refs=3 / limit-modes / me=3 / subme=5 / merange=57 / temporal-mvp / no-frame-dup / no-hme / weightp / no-weightb / no-analyze-src-pics / deblock=-3:-3 / no-sao / no-sao-non-deblock / rd=4 / selective-sao=0 / no-early-skip / no-rskip / no-fast-intra / no-tskip-fast / no-cu-lossless / b-intra / no-splitrd-skip / rdpenalty=0 / psy-rd=1.00 / psy-rdoq=5.00 / no-rd-refine / no-lossless / cbqpoffs=0 / crqpoffs=0 / rc=crf / crf=18.0 / qcomp=0.60 / qpstep=4 / stats-write=0 / stats-read=0 / ipratio=1.40 / pbratio=1.30 / aq-mode=2 / aq-strength=1.00 / cutree / zone-count=0 / no-strict-cbr / qg-size=32 / no-rc-grain / qpmax=69 / qpmin=0 / no-const-vbv / sar=0 / overscan=0 / videoformat=5 / range=0 / colorprim=2 / transfer=2 / colormatrix=2 / chromaloc=0 / display-window=0 / cll=0,0 / min-luma=0 / max-luma=1023 / log2-max-poc-lsb=8 / vui-timing-info / vui-hrd-info / slices=1 / no-opt-qp-pps / no-opt-ref-list-length-pps / no-multi-pass-opt-rps / scenecut-bias=0.05 / hist-threshold=0.01 / no-opt-cu-delta-qp / no-aq-motion / no-hdr / no-hdr-opt / no-dhdr10-opt / no-idr-recovery-sei / analysis-reuse-level=5 / scale-factor=0 / refine-intra=0 / refine-inter=0 / refine-mv=1 / refine-ctu-distortion=0 / no-limit-sao / ctu-info=0 / no-lowpass-dct / refine-analysis-type=0 / copy-pic=1 / max-ausize-factor=1.0 / no-dynamic-refine / no-single-sei / no-hevc-aq / no-svt / no-field / qp-adaptation-range=1.00 / no-scenecut-aware-qp
Language : English
Default : Yes
Forced : No

Audio
ID : 2
Format : Atmos / TrueHD
Codec ID : A_TRUEHD
Duration : 2 h 18 min
Bit rate mode : Variable
Bit rate : 3 190 kb/s
Maximum bit rate : 3 894 kb/s
Channel(s) : Object Based / 8 channels
Channel positions : Object Based / Front: L C R, Side: L R, Back: L R, LFE
Sampling rate : / 48.0 kHz
Frame rate : 1 200.000 FPS (40 spf)
Compression mode : Lossless
Stream size : 3.08 GiB (17%)
Language : English
Default : Yes
Forced : No

Subtitle
ID : 3
Format : PGS
Muxing mode : zlib
Codec ID : S_HDMV/PGS
Codec ID/Info : Picture based subtitle format used on BDs/HD-DVDs
Duration : 2 h 8 min
Bit rate : 30.2 kb/s
Count of elements : 2470
Stream size : 27.7 MiB (0%)
Language : English
Default : Yes
Forced : No

Menu
00:00:00.000 : en:Chapter 01
00:09:36.659 : en:Chapter 02
00:17:37.681 : en:Chapter 03
00:25:13.512 : en:Chapter 04
00:30:33.623 : en:Chapter 05
00:39:34.288 : en:Chapter 06
00:46:13.020 : en:Chapter 07
00:53:48.850 : en:Chapter 08
01:00:32.962 : en:Chapter 09
01:09:01.971 : en:Chapter 10
01:16:11.024 : en:Chapter 11
01:24:48.041 : en:Chapter 12
01:31:49.545 : en:Chapter 13
01:42:08.872 : en:Chapter 14
01:51:17.879 : en:Chapter 15
02:02:21.083 : en:Chapter 16



Source Information

Code:

Release:
Unknown Source/NO-GROUP



Code:


Note From UTR
Whilst we are happy for our releases to be re-posted on a platform we aren't on, please do so in an 'as-is' format. We ask that you do not create a new torrent, include all descriptions you see above including the UTR logo, tags, notes and screenshots. If you'd like to become a permanent poster on a website we don't post to, feel free to get in contact with a UTR member.
If possible please donate for seedboxes.
BTC - 1QA5fum5AyXvWzdVCkQzUNvw3Ef15fHRaR
Monero - 8AuksPSzY7fen3HHT1a2342PgVy4J93MKfXG3AAcayV76miTyJ3sNfn38srwrpLirGfeR5DwhTL8GW8pdQgT7bZcJ25ynMx
Dash - Xh4mNs6uwZdpCEX2HSEVwGvPD7yKxZ1Ccd
Ethereum - 0x51c06c94e74c16735a7a6e841ad29fc90a84eb1f





#UTRCorp -> To avoid fakes, ALWAYS check that the torrent was added on ExtraTorrent.ag by UTRCorp

https://extratorrent.ag/



Download Midway (2019) (1080p BluRay x265 HEVC 10bit TrueHD 7.1 Qman) [UTR] torrent


Comments (please add your comment)
1
posted by wowsex (2020-02-14 07:09:28)
wowsex avatar Tired of ordinary porn? Visit our website - crazyxxx.ga





Home - Browse Torrents - Upload Torrent - Stat - Forum - FAQ - Login
ExtraTorrent.ag is in compliance with copyrights
2006-2020 ExtraTorrent.ag