ExtraTorrent.ag - The Largest Bittorent System Login   |    Register
Latest Articles
Most searched
Hot torrents
Movie Torrents
View Torrent Info: Running with the Devil (2019) [720p] [YTS] [YIFY]
View Torrent Info: Annabelle Comes Home (2019) [720p] [YTS] [YIFY]
View Torrent Info: Annabelle Comes Home (2019) [720p] [YTS] [YIFY]
View Torrent Info: Inside Man: Most Wanted (2019) [720p] [YTS] [YIFY]
View Torrent Info: Between Two Ferns: The Movie (2019) [720p] [YTS] [YIFY]
View Torrent Info: Bloodline (2018) [720p] [YTS] [YIFY]
View Torrent Info: Mission Panda: Ein tierisches Team (2019) [720p] [YTS] [YIFY]
View Torrent Info: No Surrender (2018) [720p] [YTS] [YIFY]
View Torrent Info: Flight 666 (2018) [720p] [YTS] [YIFY]
View Torrent Info: Sweet Sugar (1972) [720p] [YTS] [YIFY]
Hot torrents
TV Torrents
View Torrent Info: Suits.S09E09.HDTV.x264-aAF[eztv]
View Torrent Info: Titans.2018.S02E03.WEB.x264-PHOENiX[eztv]
View Torrent Info: Fear.the.Walking.Dead.S05E15.WEB.h264-TBS[eztv]
View Torrent Info: Preacher.S04E09.WEB.h264-TBS[eztv]
View Torrent Info: Ballers.S05E04.WEB.H264-iNSiDiOUS[eztv]
View Torrent Info: American.Horror.Story.S09E01.HDTV.x264-SVA[eztv]
View Torrent Info: Real.Time.With.Bill.Maher.2019.09.20.HDTV.x264-aAF[eztv]
View Torrent Info: Killjoys.S05E10.WEB.x264-TBS[eztv]
View Torrent Info: Pearson.S01E10.WEBRip.x264-TBS[eztv]
View Torrent Info: Keeping.Up.With.the.Kardashians.S17E02.Birthdays.and.Bad.News.Part.2.HDTV.x264-CRiMSON[eztv]
ExtraTorrent.ag > Categories > TV torrents > HEVC/x265 torrents


Browse TV torrents

Infinity Train - Season 01 S01 [2019] 1080p WebRip x265 E-AC-3 2.0 Kira [SEV] torrent


Download torrent: Download Infinity Train - Season 01 S01 [2019] 1080p WebRip x265 E-AC-3 2.0 Kira [SEV] torrent Magnet link Bookmark Torrent: Infinity Train - Season 01 S01 [2019] 1080p WebRip x265 E-AC-3 2.0 Kira [SEV] Infinity Train - Season 01 S01 [2019] 1080p WebRip x265 E-AC-3 2.0 Kira [SEV] torrent | if not working, try instead: Magnet Link
Info hash: C1DBE2FEE7D1D5C9BE7477C8B8D468409BE07D8C
Category: Categories > TV torrents > HEVC/x265 torrents
Trackers:
17    View all torrent trackers >
Health:
 seeds: 22 ,  leechers: 4 |  Update >
Torrent language:  
Total Size: 5.50 GB
Torrent status: Added by trusted uploader Added by trusted uploader Trusted Uploader Site Friend Superman Sun
Uploader: Trusted Uploader Site Friend Superman Sun
Torrent added: 2019-08-25 08:13:54
 

Download Infinity Train - Season 01 S01 [2019] 1080p WebRip x265 E-AC-3 2.0 Kira [SEV] torrent if not working, try downloading torrent using Download Infinity Train - Season 01 S01 [2019] 1080p WebRip x265 E-AC-3 2.0 Kira [SEV] via Magnet Link




Torrent Description



Screenshot's



Media Information

Code:


General
Unique ID : 127761031916679414697874551806023432814 (0x601DE134A2DDCC349A1C3A9894B7FA6E)
Complete name : Infinity Train S01E01 1080p WebRip x265 E-AC-3 2.0 Kira [SEV].mkv
Format : Matroska
Format version : Version 4
File size : 538 MiB
Duration : 11 min 18 s
Overall bit rate : 6 647 kb/s
Movie name : Infinity Train : S01.E01 : The Grid Car
Encoded date : UTC 2019-08-17 09:24:21
Writing application : mkvmerge v36.0.0 ('Is That Jazz?') 64-bit
Writing library : libebml v1.3.9 + libmatroska v1.5.2

Video
ID : 1
Format : HEVC
Format/Info : High Efficiency Video Coding
Format profile : Main [email protected]@Main
Codec ID : V_MPEGH/ISO/HEVC
Duration : 11 min 18 s
Bit rate : 6 421 kb/s
Width : 1 920 pixels
Height : 1 080 pixels
Display aspect ratio : 16:9
Frame rate mode : Constant
Frame rate : 23.976 (24000/1001) FPS
Color space : YUV
Chroma subsampling : 4:2:0
Bit depth : 10 bits
Bits/(Pixel*Frame) : 0.129
Stream size : 519 MiB (97%)
Title : Infinity Train : S01.E01 : The Grid Car
Writing library : x265 3.1+11-de920e0a3183:[Windows][MSVC 1922][64 bit] 10bit
Encoding settings : cpuid=1111039 / frame-threads=2 / numa-pools=4 / wpp / no-pmode / no-pme / no-psnr / no-ssim / log-level=2 / input-csp=1 / input-res=1920x1080 / interlace=0 / total-frames=16268 / level-idc=0 / high-tier=1 / uhd-bd=0 / ref=4 / no-allow-non-conformance / no-repeat-headers / annexb / no-aud / no-hrd / info / hash=0 / no-temporal-layers / open-gop / min-keyint=23 / keyint=250 / gop-lookahead=0 / bframes=8 / b-adapt=2 / b-pyramid / bframe-bias=0 / rc-lookahead=100 / lookahead-slices=4 / scenecut=40 / radl=0 / no-splice / no-intra-refresh / ctu=64 / min-cu-size=8 / no-rect / no-amp / max-tu-size=32 / tu-inter-depth=1 / tu-intra-depth=1 / limit-tu=0 / rdoq-level=2 / dynamic-rd=0.00 / no-ssim-rd / signhide / no-tskip / nr-intra=0 / nr-inter=0 / no-constrained-intra / no-strong-intra-smoothing / max-merge=3 / limit-refs=3 / limit-modes / me=3 / subme=7 / merange=92 / temporal-mvp / no-hme / weightp / no-weightb / no-analyze-src-pics / deblock=-3:-3 / sao / no-sao-non-deblock / rd=4 / no-early-skip / rskip / no-fast-intra / no-tskip-fast / no-cu-lossless / no-b-intra / no-splitrd-skip / rdpenalty=0 / psy-rd=1.50 / psy-rdoq=1.00 / no-rd-refine / no-lossless / cbqpoffs=0 / crqpoffs=0 / rc=crf / crf=20.0 / qcomp=0.60 / qpstep=4 / stats-write=0 / stats-read=0 / ipratio=1.40 / pbratio=1.30 / aq-mode=2 / aq-strength=1.00 / cutree / zone-count=0 / no-strict-cbr / qg-size=32 / no-rc-grain / qpmax=69 / qpmin=0 / no-const-vbv / sar=0 / overscan=0 / videoformat=5 / range=0 / colorprim=2 / transfer=2 / colormatrix=2 / chromaloc=0 / display-window=0cll=0,0 / min-luma=0 / max-luma=1023 / log2-max-poc-lsb=8 / vui-timing-info / vui-hrd-info / slices=1 / no-opt-qp-pps / no-opt-ref-list-length-pps / no-multi-pass-opt-rps / scenecut-bias=0.05 / no-opt-cu-delta-qp / no-aq-motion / no-hdr / no-hdr-opt / no-dhdr10-opt / no-idr-recovery-sei / analysis-reuse-level=5 / scale-factor=0 / refine-intra=0 / refine-inter=0 / refine-mv=0 / refine-ctu-distortion=0 / no-limit-sao / ctu-info=0 / no-lowpass-dct / refine-analysis-type=0 / copy-pic=1 / max-ausize-factor=1.0 / no-dynamic-refine / no-single-sei / no-hevc-aq / no-svt / no-field / qp-adaptation-range=1.00
Language : English
Default : Yes
Forced : No

Audio
ID : 2
Format : E-AC-3
Format/Info : Enhanced AC-3
Commercial name : Dolby Digital Plus
Codec ID : A_EAC3
Duration : 11 min 18 s
Bit rate mode : Constant
Bit rate : 224 kb/s
Channel(s) : 2 channels
Channel layout : L R
Sampling rate : 48.0 kHz
Frame rate : 31.250 FPS (1536 SPF)
Compression mode : Lossy
Stream size : 18.1 MiB (3%)
Title : English DD+_2.0
Language : English
Service kind : Complete Main
Default : Yes
Forced : No

Text
ID : 3
Format : UTF-8
Codec ID : S_TEXT/UTF8
Codec ID/Info : UTF-8 Plain Text
Duration : 11 min 11 s
Bit rate : 89 b/s
Count of elements : 265
Stream size : 7.37 KiB (0%)
Title : English SRT
Language : English
Default : Yes
Forced : No



Source Information

Code:


Infinity.Train.S01.1080p.AMZN.WEB-DL.DDP2.0.H.264-CtrlHD (9.68 GB)



We have no issue with individuals posting or re-uploading our torrents on a platform we aren't on. However, if this is something you'd like to do, please do so in a 'as-is' format. We ask that you do not create a new torrent, include all descriptions you see above including the SEV logo, tags, notes and screenshots. If you'd like to become a permanent poster on a website we don't post to, feel free to get in contact with a Sublime Encoded Video member.

We are recruiting/training new members for SEV & seedbox providers as well as people to help out with subtitles.
As you already know, we deliver quality, so you know the standard.
If you're interested, feel free to contact any of the team members.






#1337xKira -> To avoid fakes, ALWAYS check that the torrent was added on ExtraTorrent.ag by 1337xKira

https://extratorrent.ag/



Download Infinity Train - Season 01 S01 [2019] 1080p WebRip x265 E-AC-3 2.0 Kira [SEV] torrent


Comments (please add your comment)
No comments



Home - Browse Torrents - Upload Torrent - Stat - Forum - FAQ - Login
ExtraTorrent.ag is in compliance with copyrights
2006-2018 ExtraTorrent.ag