ExtraTorrent.ag - The Largest Bittorent System Login   |    Register
Latest Articles
Most searched
Hot torrents
Movie Torrents
View Torrent Info: Long Shot (2019) [720p] [YTS] [YIFY]
View Torrent Info: Pokémon Detective Pikachu (2019) [720p] [YTS] [YIFY]
View Torrent Info: Batman: Hush (2019) [720p] [YTS] [YIFY]
View Torrent Info: The Intruder (2019) [720p] [YTS] [YIFY]
View Torrent Info: Into the Ashes (2019) [720p] [YTS] [YIFY]
View Torrent Info: Secret Obsession (2019) [720p] [YTS] [YIFY]
View Torrent Info: The Curse of La Llorona (2019) [720p] [YTS] [YIFY]
View Torrent Info: Wolf (2018) [720p] [YTS] [YIFY]
View Torrent Info: Big Brother (2018) [720p] [YTS] [YIFY]
View Torrent Info: UglyDolls (2019) [720p] [YTS] [YIFY]
Hot torrents
TV Torrents
View Torrent Info: Marvels.Agents.of.S.H.I.E.L.D.S06E10.HDTV.x264-SVA[eztv]
View Torrent Info: the.100.s06e10.web.h264-tbs[eztv]
View Torrent Info: The.100.S06E10.HDTV.x264-CRAVERS[eztv]
View Torrent Info: big.little.lies.s02e06.web.h264-tbs[eztv]
View Torrent Info: Pandora.2019.S01E01.HDTV.x264-KILLERS[eztv]
View Torrent Info: The.Handmaids.Tale.S03E09.WEB.x264-PHOENiX[eztv]
View Torrent Info: Krypton.S02E06.HDTV.x264-SVA[eztv]
View Torrent Info: Veronica.Mars.S04E01.WEB.h264-TBS[eztv]
View Torrent Info: Elementary.S07E09.HDTV.x264-KILLERS[eztv]
View Torrent Info: Blood.and.Treasure.S01E10.HDTV.x264-KILLERS[eztv]
ExtraTorrent.ag > Categories > TV torrents > HD torrents


Browse TV torrents

L.A.s.Finest.S01E10.720p.WEB.H264-EDHD torrent


Download torrent: Download L.A.s.Finest.S01E10.720p.WEB.H264-EDHD torrent Magnet link Bookmark Torrent: L.A.s.Finest.S01E10.720p.WEB.H264-EDHD L.A.s.Finest.S01E10.720p.WEB.H264-EDHD torrent | if not working, try instead: Magnet Link
Info hash: E8FAABD4E6CA0C45F3D25C3949D021CC742287CB
Category: Categories > TV torrents > HD torrents
Trackers:
3    View all torrent trackers >
Health:
 seeds: 0 ,  leechers: 0 |  Update >
Torrent language:  
Total Size: 986.40 MB
Torrent status: Added by trusted uploader Added by trusted uploader Trusted Uploader Site Friend Superman Sun
Uploader: Trusted Uploader Site Friend Superman Sun
Torrent added: 2019-06-14 12:11:34
 

Download L.A.s.Finest.S01E10.720p.WEB.H264-EDHD torrent if not working, try downloading torrent using Download L.A.s.Finest.S01E10.720p.WEB.H264-EDHD via Magnet Link




Torrent Description

L.A.s.Finest.S01E10.720p.WEB.H264-EDHD
https://www.imdb.com/title/tt7555294/


Mediainfo:

Video:
Format : AVC
Duration : 49 min 52 s
Bit rate : 2 326 kb/s
Width : 1 280 pixels
Height : 720 pixels
Frame rate : 25.000 FPS
Stream size : 830 MiB (84%)

Audio:
Format : AC-3
Duration : 49 min 52 s
Bit rate : 384 kb/s
Channel(s) : 6 channels
Stream size : 137 MiB (14%)
Language : English


Screenshots:




#Sergey321 -> To avoid fakes, ALWAYS check that the torrent was added on ExtraTorrent.ag by Sergey321

https://extratorrent.ag/



Download L.A.s.Finest.S01E10.720p.WEB.H264-EDHD torrent


Comments (please add your comment)
No comments



Home - Browse Torrents - Upload Torrent - Stat - Forum - FAQ - Login
ExtraTorrent.ag is in compliance with copyrights
2006-2018 ExtraTorrent.ag