ExtraTorrent.ag - The Largest Bittorent System Login   |    Register
Latest Articles
Most searched
Hot torrents
Movie Torrents
View Torrent Info: Long Shot (2019) [720p] [YTS] [YIFY]
View Torrent Info: Pokémon Detective Pikachu (2019) [720p] [YTS] [YIFY]
View Torrent Info: Batman: Hush (2019) [720p] [YTS] [YIFY]
View Torrent Info: The Intruder (2019) [720p] [YTS] [YIFY]
View Torrent Info: Into the Ashes (2019) [720p] [YTS] [YIFY]
View Torrent Info: Secret Obsession (2019) [720p] [YTS] [YIFY]
View Torrent Info: The Curse of La Llorona (2019) [720p] [YTS] [YIFY]
View Torrent Info: Wolf (2018) [720p] [YTS] [YIFY]
View Torrent Info: Big Brother (2018) [720p] [YTS] [YIFY]
View Torrent Info: UglyDolls (2019) [720p] [YTS] [YIFY]
Hot torrents
TV Torrents
View Torrent Info: Marvels.Agents.of.S.H.I.E.L.D.S06E10.HDTV.x264-SVA[eztv]
View Torrent Info: the.100.s06e10.web.h264-tbs[eztv]
View Torrent Info: The.100.S06E10.HDTV.x264-CRAVERS[eztv]
View Torrent Info: big.little.lies.s02e06.web.h264-tbs[eztv]
View Torrent Info: Pandora.2019.S01E01.HDTV.x264-KILLERS[eztv]
View Torrent Info: The.Handmaids.Tale.S03E09.WEB.x264-PHOENiX[eztv]
View Torrent Info: Krypton.S02E06.HDTV.x264-SVA[eztv]
View Torrent Info: Veronica.Mars.S04E01.WEB.h264-TBS[eztv]
View Torrent Info: Elementary.S07E09.HDTV.x264-KILLERS[eztv]
View Torrent Info: Blood.and.Treasure.S01E10.HDTV.x264-KILLERS[eztv]
ExtraTorrent.ag > Categories > Music torrents > Lossless torrents


Browse Music torrents

Lonely Robot - Under Stars (2019) Flac torrent


Download torrent: Download Lonely Robot - Under Stars (2019) Flac torrent Magnet link Bookmark Torrent: Lonely Robot - Under Stars (2019) Flac Lonely Robot - Under Stars (2019) Flac torrent | if not working, try instead: Magnet Link
Info hash: E92F54FFF8AFD16462F813BECA3E715FA98650D7
Category: Categories > Music torrents > Lossless torrents
Trackers:
13    View all torrent trackers >
Health:
 seeds: 9 ,  leechers: 0 |  Update >
Torrent language:  
Total Size: 408.20 MB
Torrent status: Added by trusted uploader Added by trusted uploader Trusted Uploader Site Friend Superman Sun
Uploader: Trusted Uploader Site Friend Superman Sun
Torrent added: 2019-06-09 13:04:06
 

Download Lonely Robot - Under Stars (2019) Flac torrent if not working, try downloading torrent using Download Lonely Robot - Under Stars (2019) Flac via Magnet Link




Torrent Description



Quality-Lossless
Release-2019
Duration-01:07:56
File Size-428.0 MB
Genre-Progressive Rock
Cover Size-1200px

----------------------------------------------------------------------------------------------
Analyzed: Under Stars / Artist: Lonely Robot
----------------------------------------------------------------------------------------------
DR Peak RMS Duration Title [codec]
----------------------------------------------------------------------------------------------
DR9 -5.10 dB -17.58 dB 1:55 01 - Terminal Earth [flac]
DR7 -0.10 dB -9.60 dB 5:46 02 - Ancient Ascendant [flac]
DR7 -0.10 dB -11.29 dB 5:20 03 - Icarus [flac]
DR9 -0.10 dB -11.60 dB 5:16 04 - Under Stars [flac]
DR8 -0.10 dB -11.22 dB 5:38 05 - Authorship Of Our Lives [flac]
DR8 -1.10 dB -14.00 dB 3:18 06 - The Signal [flac]
DR7 -0.10 dB -9.42 dB 5:15 07 - The Only Time I Don't Belong Is Now [flac]
DR7 -0.10 dB -9.46 dB 5:03 08 - When Gravity Fails [flac]
DR9 -0.10 dB -14.47 dB 6:03 09 - How Bright Is The Sun? [flac]
DR7 -0.10 dB -10.90 dB 3:28 10 - Inside This Machine [flac]
DR10 -2.10 dB -15.99 dB 2:39 11 - An Ending [flac]
DR11 -0.36 dB -17.37 dB 5:58 12 - How Bright Is The Sun? (Cosmic Mix) [flac]
DR9 -0.10 dB -13.25 dB 5:15 13 - Under Stars (Cosmic Mix) [flac]
DR16 -1.28 dB -19.09 dB 6:58 14 - Lonely Robot - Chapter One: Airlock [flac]
----------------------------------------------------------------------------------------------
Number of files: 14
Official DR value: DR9

Sampling rate: 44100 Hz
Average bitrate: 845kbs
Bits per sample: 16 bit



#was95was -> To avoid fakes, ALWAYS check that the torrent was added on ExtraTorrent.ag by was95was

https://extratorrent.ag/



Download Lonely Robot - Under Stars (2019) Flac torrent


Comments (please add your comment)
No comments



Home - Browse Torrents - Upload Torrent - Stat - Forum - FAQ - Login
ExtraTorrent.ag is in compliance with copyrights
2006-2018 ExtraTorrent.ag