ExtraTorrent.ag - The Largest Bittorent System Login   |    Register
Latest Articles
Most searched
Hot torrents
Movie Torrents
View Torrent Info: Kill Chain (2019) [720p] [YTS] [YIFY]
View Torrent Info: The Room (2019) [720p] [YTS] [YIFY]
View Torrent Info: Eli (2019) [720p] [YTS] [YIFY]
View Torrent Info: Robert the Bruce (2019) [720p] [YTS] [YIFY]
View Torrent Info: Birds of a Feather (2019) [720p] [YTS] [YIFY]
View Torrent Info: Extra Ordinary (2019) [720p] [YTS] [YIFY]
View Torrent Info: Wounds (2019) [720p] [YTS] [YIFY]
View Torrent Info: Dark Encounter (2019) [720p] [YTS] [YIFY]
View Torrent Info: William (2019) [720p] [YTS] [YIFY]
View Torrent Info: The Village in the Woods (2019) [720p] [YTS] [YIFY]
Hot torrents
TV Torrents
View Torrent Info: The.Blacklist.S07E03.HDTV.x264-SVA[eztv]
View Torrent Info: Arrow.S08E01.HDTV.x264-SVA[eztv]
View Torrent Info: The.Flash.2014.S06E02.HDTV.x264-SVA[eztv]
View Torrent Info: FBI.S02E04.HDTV.x264-SVA[eztv]
View Torrent Info: watchmen.s01e01.web.h264-tbs[eztv]
View Torrent Info: Titans.2018.S02E07.HDTV.x264-MiKEPANTS[eztv]
View Torrent Info: Greys.Anatomy.S16E04.HDTV.x264-SVA[eztv]
View Torrent Info: Supergirl.S05E03.HDTV.x264-SVA[eztv]
View Torrent Info: Chicago.Med.S05E04.HDTV.x264-SVA[eztv]
View Torrent Info: Batwoman.S01E03.HDTV.x264-SVA[eztv]
ExtraTorrent.ag > Categories > Movies torrents > Divx/Xvid torrents


Browse Movies torrents

Aladdin 2019 720p NEW HDCAM-1XBET torrent


Download torrent: Download Aladdin 2019 720p NEW HDCAM-1XBET torrent Magnet link Bookmark Torrent: Aladdin 2019 720p NEW HDCAM-1XBET Aladdin 2019 720p NEW HDCAM-1XBET torrent | if not working, try instead: Magnet Link
Info hash: 3BEC5796EA762CAA7B40CA711B7E9D7B821FEF44
Category: Categories > Movies torrents > Divx/Xvid torrents
Trackers:
1    View all torrent trackers >
Health:
 seeds: 31 ,  leechers: 12 |  Update >
Torrent language:  
Total Size: 2.40 GB
Torrent status: Added by trusted uploader Added by trusted uploader Trusted Uploader Site Friend Superman Sun
Uploader: Trusted Uploader Site Friend Superman Sun
Torrent added: 2019-05-24 08:36:04
 

Download Aladdin 2019 720p NEW HDCAM-1XBET torrent if not working, try downloading torrent using Download Aladdin 2019 720p NEW HDCAM-1XBET via Magnet Link




Torrent Description



Aladdin 2019 720p NEW HDCAM-1XBET

https://www.imdb.com/title/tt6139732

A kindhearted street urchin named Aladdin embarks on a magical adventure after finding a lamp that releases a wisecracking genie while a power-hungry Grand Vizier vies for the same lamp that has the power to make their deepest wishes come true.


General
Complete name : Aladdin 2019 720p NEW HDCAM-1XBET.mkv
Format : Matroska
Format version : Version 4
File size : 2.44 GiB
Duration : 2 h 3 min
Overall bit rate mode : Variable
Overall bit rate : 2 835 kb/s
Encoded date : UTC 2019-05-23 18:42:08
Writing application : TMPGEnc Video Mastering Works 6 Version. 6.2.10.37
Writing library : TMPGEnc Video Mastering Works 6 Version. 6.2.10.37

Video
ID : 2
Format : AVC
Format/Info : Advanced Video Codec
Format profile : Hi[email protected]
Format settings : CABAC / 6 Ref Frames
Format settings, CABAC : Yes
Format settings, Reference frames : 6 frames
Codec ID : V_MPEG4/ISO/AVC
Duration : 2 h 3 min
Bit rate mode : Variable
Bit rate : 2 609 kb/s
Maximum bit rate : 16.4 Mb/s
Width : 1 280 pixels
Height : 536 pixels
Display aspect ratio : 2.40:1
Frame rate mode : Constant
Frame rate : 24.000 FPS
Standard : Component
Color space : YUV
Chroma subsampling : 4:2:0
Bit depth : 8 bits
Scan type : Progressive
Bits/(Pixel*Frame) : 0.158
Stream size : 2.20 GiB (90%)
Writing library : x264 core 148

Audio
ID : 1
Format : AC-3
Format/Info : Audio Coding 3
Commercial name : Dolby Digital
Codec ID : A_AC3
Duration : 2 h 3 min
Bit rate mode : Constant
Bit rate : 224 kb/s
Channel(s) : 2 channels
Channel layout : L R
Sampling rate : 48.0 kHz
Frame rate : 31.250 FPS (1536 SPF)
Bit depth : 16 bits
Compression mode : Lossy
Stream size : 197 MiB (8%)
Service kind : Complete Main
Default : Yes
Forced : No






#Dingie -> To avoid fakes, ALWAYS check that the torrent was added on ExtraTorrent.ag by Dingie

https://extratorrent.ag/



Download Aladdin 2019 720p NEW HDCAM-1XBET torrent


Comments (please add your comment)
No comments



Home - Browse Torrents - Upload Torrent - Stat - Forum - FAQ - Login
ExtraTorrent.ag is in compliance with copyrights
2006-2018 ExtraTorrent.ag