ExtraTorrent.ag - The Largest Bittorent System Login   |    Register
Latest Articles
Most searched
Hot torrents
Movie Torrents
View Torrent Info: Long Shot (2019) [720p] [YTS] [YIFY]
View Torrent Info: Lying and Stealing (2019) [720p] [YTS] [YIFY]
View Torrent Info: The Intruder (2019) [720p] [YTS] [YIFY]
View Torrent Info: Point Blank (2019) [720p] [YTS] [YIFY]
View Torrent Info: Big Brother (2018) [720p] [YTS] [YIFY]
View Torrent Info: The Revenant (2009) [720p] [YTS] [YIFY]
View Torrent Info: iBoy (2017) [720p] [YTS] [YIFY]
View Torrent Info: I Got the Hook Up 2 (2019) [720p] [YTS] [YIFY]
View Torrent Info: Sheep and Wolves: Pig Deal (2019) [720p] [YTS] [YIFY]
View Torrent Info: Ninja (2009) [720p] [YTS] [YIFY]
Hot torrents
TV Torrents
View Torrent Info: Marvels.Agents.of.S.H.I.E.L.D.S06E09.HDTV.x264-SVA[eztv]
View Torrent Info: the.100.s06e10.web.h264-tbs[eztv]
View Torrent Info: The.Handmaids.Tale.S03E09.WEB.x264-PHOENiX[eztv]
View Torrent Info: big.little.lies.s02e06.web.h264-tbs[eztv]
View Torrent Info: Pandora.2019.S01E01.HDTV.x264-KILLERS[eztv]
View Torrent Info: Blood.and.Treasure.S01E10.HDTV.x264-KILLERS[eztv]
View Torrent Info: elementary.s07e08.web.x264-tbs[eztv]
View Torrent Info: Krypton.S02E05.HDTV.x264-SVA[eztv]
View Torrent Info: The.100.S06E10.480p.x264-mSD[eztv]
View Torrent Info: Animal.Kingdom.US.S04E08.HDTV.x264-SVA[eztv]
ExtraTorrent.ag > Categories > Movies torrents > HD torrents


Browse Movies torrents

The Brave 2019 1080p WEB-DL DD 5.1 x264 [MW] torrent


Download torrent: Download The Brave 2019 1080p WEB-DL DD 5.1 x264 [MW] torrent Magnet link Bookmark Torrent: The Brave 2019 1080p WEB-DL DD 5.1 x264 [MW] The Brave 2019 1080p WEB-DL DD 5.1 x264 [MW] torrent | if not working, try instead: Magnet Link
Info hash: F950731F84B1F31A8900B9FF1281DBC2BAD00072
Category: Categories > Movies torrents > HD torrents
Trackers:
14    View all torrent trackers >
Health:
 seeds: 0 ,  leechers: 0 |  Update >
Torrent language:  
Total Size: 1.80 GB
Torrent status: Added by trusted uploader Added by trusted uploader Trusted Uploader Site Friend Superman Sun
Uploader: Trusted Uploader Site Friend Superman Sun
Torrent added: 2019-03-26 16:18:09
 

Download The Brave 2019 1080p WEB-DL DD 5.1 x264 [MW] torrent if not working, try downloading torrent using Download The Brave 2019 1080p WEB-DL DD 5.1 x264 [MW] via Magnet Link




Torrent Description





General
Format : Matroska
Format version : Version 4
File size : 1.84 GiB
Duration : 1 h 43 min
Overall bit rate : 2 554 kb/s

Video
ID : 1
Format : AVC
Format/Info : Advanced Video Codec
Format profile : [email protected]
Format settings : CABAC / 4 Ref Frames
Format settings, CABAC : Yes
Format settings, RefFrames : 4 frames
Codec ID : V_MPEG4/ISO/AVC
Duration : 1 h 43 min
Bit rate : 2 200 kb/s
Width : 1 920 pixels
Height : 804 pixels
Display aspect ratio : 2.40:1
Frame rate mode : Constant
Frame rate : 23.976 (24000/1001) FPS
Color space : YUV
Chroma subsampling : 4:2:0
Bit depth : 8 bits
Scan type : Progressive
Bits/(Pixel*Frame) : 0.059
Stream size : 1.56 GiB (85%)
Writing library : x264 core 157 r2935 545de2f

Audio
ID : 2
Format : AC-3
Format/Info : Audio Coding 3
Commercial name : Dolby Digital
Codec ID : A_AC3
Duration : 1 h 43 min
Bit rate mode : Constant
Bit rate : 384 kb/s
Channel(s) : 6 channels
Channel layout : L R C LFE Ls Rs
Sampling rate : 48.0 kHz
Frame rate : 31.250 FPS (1536 SPF)
Bit depth : 16 bits
Compression mode : Lossy
Stream size : 283 MiB (15%)
Language : English
Service kind : Complete Main
Default : Yes
Forced : No


Click To View Image









#moviezworldz -> To avoid fakes, ALWAYS check that the torrent was added on ExtraTorrent.ag by moviezworldz

https://extratorrent.ag/



Download The Brave 2019 1080p WEB-DL DD 5.1 x264 [MW] torrent


Comments (please add your comment)
No comments



Home - Browse Torrents - Upload Torrent - Stat - Forum - FAQ - Login
ExtraTorrent.ag is in compliance with copyrights
2006-2018 ExtraTorrent.ag