ExtraTorrent.ag - The Largest Bittorent System Login   |    Register
Latest Articles
Most searched
Hot torrents
Movie Torrents
View Torrent Info: Angel Has Fallen (2019) [720p] [YTS] [YIFY]
View Torrent Info: Noelle (2019) [720p] [YTS] [YIFY]
View Torrent Info: Lady and the Tramp (2019) [720p] [YTS] [YIFY]
View Torrent Info: Don't Let Go (2019) [720p] [YTS] [YIFY]
View Torrent Info: Dino King 3D: Journey to Fire Mountain (2019) [720p] [YTS] [YIFY]
View Torrent Info: The Death and Return of Superman (2019) [720p] [YTS] [YIFY]
View Torrent Info: Acceleration (2019) [720p] [YTS] [YIFY]
View Torrent Info: The Bygone (2019) [720p] [YTS] [YIFY]
View Torrent Info: Let It Snow (2019) [720p] [YTS] [YIFY]
View Torrent Info: Up There (2019) [720p] [YTS] [YIFY]
Hot torrents
TV Torrents
View Torrent Info: The.Mandalorian.S01E01.WEB.x264-PHOENiX[eztv]
View Torrent Info: Greys.Anatomy.S16E08.HDTV.x264-SVA[eztv]
View Torrent Info: The.Good.Doctor.S03E07.HDTV.x264-KILLERS[eztv]
View Torrent Info: FBI.S02E07.HDTV.x264-SVA[eztv]
View Torrent Info: Supergirl.S05E06.HDTV.x264-KILLERS[eztv]
View Torrent Info: The.Rookie.S02E07.HDTV.x264-SVA[eztv]
View Torrent Info: Batwoman.S01E06.HDTV.x264-KILLERS[eztv]
View Torrent Info: The.Blacklist.S07E06.HDTV.x264-SVA[eztv]
View Torrent Info: NCIS.S17E07.HDTV.x264-SVA[eztv]
View Torrent Info: New.Amsterdam.2018.S02E08.HDTV.x264-KILLERS[eztv]
ExtraTorrent.ag > Categories > Movies torrents > HD torrents


Browse Movies torrents

8MM Bullet (2018) 720p Kannada (DD 5.1) HDRip x264 AC3 by india4movies torrent


Download torrent: Download 8MM Bullet (2018) 720p Kannada (DD 5.1) HDRip x264 AC3 by india4movies torrent Magnet link Bookmark Torrent: 8MM Bullet (2018) 720p Kannada (DD 5.1) HDRip x264 AC3 by india4movies 8MM Bullet (2018) 720p Kannada (DD 5.1) HDRip x264 AC3 by india4movies torrent | if not working, try instead: Magnet Link
Info hash: 702A3803395A3190FC9B252920D5C954906A594F
Category: Categories > Movies torrents > HD torrents
Trackers:
15    View all torrent trackers >
Health:
 seeds: 16 ,  leechers: 19 |  Update >
Total Size: 1.30 GB
Torrent status: Added by trusted uploader Added by trusted uploader Trusted Uploader Site Friend Superman Sun
Uploader: Trusted Uploader Site Friend Superman Sun
Torrent added: 2019-03-16 13:18:42
 

Download 8MM Bullet (2018) 720p Kannada (DD 5.1) HDRip x264 AC3 by india4movies torrent if not working, try downloading torrent using Download 8MM Bullet (2018) 720p Kannada (DD 5.1) HDRip x264 AC3 by india4movies via Magnet Link




Torrent Description



General
Complete name : 8MM Bullet (2018) 720p Kannada (DD 5.1) HDRip x264 AC3 by india4movies.mkv
Format : Matroska
Format version : Version 4
File size : 1.30 GiB
Duration : 2 h 13 min
Overall bit rate : 1 394 kb/s
Movie name : www.india4movies.cc
Encoded date : UTC 2019-03-15 11:47:10
Writing application : mkvmerge v6.9.1 ('Blue Panther') 32bit built on Apr 18 2014 18:15:44
Writing library : libebml v1.3.0 + libmatroska v1.4.1
Attachments : india4movies-2.png

Video
ID : 1
Format : AVC
Format/Info : Advanced Video Codec
Format profile : [email protected]
Format settings : CABAC / 4 Ref Frames
Format settings, CABAC : Yes
Format settings, ReFrames : 4 frames
Codec ID : V_MPEG4/ISO/AVC
Duration : 2 h 13 min
Bit rate : 1 272 kb/s
Width : 1 280 pixels
Height : 544 pixels
Display aspect ratio : 2.35:1
Frame rate mode : Constant
Frame rate : 25.000 FPS
Color space : YUV
Chroma subsampling : 4:2:0
Bit depth : 8 bits
Scan type : Progressive
Bits/(Pixel*Frame) : 0.073
Stream size : 1.15 GiB (89%)
Writing library : x264 core 157 r2935 545de2f
Language : Kannada
Default : Yes
Forced : No

Audio
ID : 2
Format : AC-3
Format/Info : Audio Coding 3
Commercial name : Dolby Digital
Codec ID : A_AC3
Duration : 2 h 13 min
Bit rate mode : Constant
Bit rate : 128 kb/s
Channel(s) : 6 channels
Channel layout : L R C LFE Ls Rs
Sampling rate : 44.1 kHz
Frame rate : 28.711 FPS (1536 SPF)
Bit depth : 16 bits
Compression mode : Lossy
Stream size : 122 MiB (9%)
Language : Kannada
Service kind : Complete Main
Default : Yes
Forced : No

Screen Shoots



#shmasti -> To avoid fakes, ALWAYS check that the torrent was added on ExtraTorrent.ag by shmasti

https://extratorrent.ag/



Download 8MM Bullet (2018) 720p Kannada (DD 5.1) HDRip x264 AC3 by india4movies torrent


Comments (please add your comment)
No comments



Home - Browse Torrents - Upload Torrent - Stat - Forum - FAQ - Login
ExtraTorrent.ag is in compliance with copyrights
2006-2018 ExtraTorrent.ag