ExtraTorrent.ag - The Largest Bittorent System Login   |    Register
Latest Articles
Most searched
Hot torrents
Movie Torrents
View Torrent Info: Triple Frontier (2019) [720p] [YTS] [YIFY]
View Torrent Info: Bumblebee (2018) [720p] [YTS] [YIFY]
View Torrent Info: Master Z: Ip Man Legacy (2018) [720p] [YTS] [YIFY]
View Torrent Info: Paskal (2018) [720p] [YTS] [YIFY]
View Torrent Info: The Mule (2018) [720p] [YTS] [YIFY]
View Torrent Info: Finding Steve McQueen (2018) [720p] [YTS] [YIFY]
View Torrent Info: Stan & Ollie (2018) [720p] [YTS] [YIFY]
View Torrent Info: Never Grow Old (2019) [720p] [YTS] [YIFY]
View Torrent Info: Battlestar Galactica: Razor (2007) [720p] [YTS] [YIFY]
View Torrent Info: Chimera Strain (2018) [720p] [YTS] [YIFY]
Hot torrents
TV Torrents
View Torrent Info: Greys.Anatomy.S15E17.HDTV.x264-KILLERS[eztv]
View Torrent Info: The.Walking.Dead.S09E14.HDTV.x264-SVA[eztv]
View Torrent Info: Arrow.S07E16.HDTV.x264-SVA[eztv]
View Torrent Info: Supergirl.S04E15.HDTV.x264-SVA[eztv]
View Torrent Info: Brooklyn.Nine-Nine.S06E10.HDTV.x264-SVA[eztv]
View Torrent Info: Billions.S04E01.WEB.H264-MEMENTO[eztv]
View Torrent Info: The.Blacklist.S06E11.WEB.x264-TBS[eztv]
View Torrent Info: Star.Trek.Discovery.S02E09.WEBRip.x264-TBS[eztv]
View Torrent Info: The.Enemy.Within.S01E04.HDTV.x264-SVA[eztv]
View Torrent Info: Modern.Family.S10E17.HDTV.x264-KILLERS[eztv]
ExtraTorrent.ag > Categories > Movies torrents > Dubbed /Dual Audio torrents


Browse Movies torrents

Fantastic Beasts: The Crimes of Grindelwald (2018) Extended 1080p 10bit Bluray x265 HEVC [Org BD 5.1 Hindi + DD 5.1 English] ESub ~ TombDoc torrent


Download torrent: Download Fantastic Beasts: The Crimes of Grindelwald (2018) Extended 1080p 10bit Bluray x265 HEVC [Org BD 5.1 Hindi + DD 5.1 English] ESub ~ TombDoc torrent Magnet link Bookmark Torrent: Fantastic Beasts: The Crimes of Grindelwald (2018) Extended 1080p 10bit Bluray x265 HEVC [Org BD 5.1 Hindi + DD 5.1 English] ESub ~ TombDoc Fantastic Beasts: The Crimes of Grindelwald (2018) Extended 1080p 10bit Bluray x265 HEVC [Org BD 5.1 Hindi + DD 5.1 English] ESub ~ TombDoc torrent | if not working, try instead: Magnet Link
Info hash: 53B071783FEC5118C6D88F22C50A0FDAE649D345
Category: Categories > Movies torrents > Dubbed /Dual Audio torrents
Trackers:
20    View all torrent trackers >
Health:
 seeds: 114 ,  leechers: 45 |  Update >
Total Size: 4.40 GB
Torrent status: Added by trusted uploader Added by trusted uploader Trusted Uploader Site Friend Superman Sun
Uploader: Trusted Uploader Site Friend Superman Sun
Torrent added: 2019-03-14 13:10:19
 

Download Fantastic Beasts: The Crimes of Grindelwald (2018) Extended 1080p 10bit Bluray x265 HEVC [Org BD 5.1 Hindi + DD 5.1 English] ESub ~ TombDoc torrent if not working, try downloading torrent using Download Fantastic Beasts: The Crimes of Grindelwald (2018) Extended 1080p 10bit Bluray x265 HEVC [Org BD 5.1 Hindi + DD 5.1 English] ESub ~ TombDoc via Magnet Link




Torrent Description



Who will change the future?...





Fantastic Beasts: The Crimes of Grindelwald (2018) Extended 1080p 10bit Bluray x265 HEVC [Org BD 5.1 Hindi + DD 5.1 English] ESub ~ TombDoc


Org Untouched Bluray 5.1 448Kbps Hindi Audio By Hammer & Ext. By Peter {Thanks}


Code:

Format : Matroska
Format version : Version 4
File size : 4.42 GiB
Duration : 2 h 20 min
Overall bit rate : 4 492 kb/s
Writing frontend : TombDoc

Video
ID : 1
Format : HEVC
Format/Info : High Efficiency Video Coding
Format profile : Main [email protected]@Main
Codec ID : V_MPEGH/ISO/HEVC
Duration : 2 h 20 min
Bit rate : 3 650 kb/s
Width : 1 920 pixels
Height : 800 pixels
Display aspect ratio : 2.40:1
Frame rate mode : Constant
Frame rate : 23.976 (24000/1001) FPS
Color space : YUV
Chroma subsampling : 4:2:0
Bit depth : 10 bits
Bits/(Pixel*Frame) : 0.099
Stream size : 3.59 GiB (81%)
Writing library : x265 3.0_Au+4-dcbec33bfb0f:[Windows][GCC 9.0.1][64 bit] 10bit
Encoding settings : cpuid=1049583 / frame-threads=5 / numa-pools=16,16 / wpp / no-pmode / no-pme / no-psnr / no-ssim / log-level=2 / input-csp=1 / input-res=1920x800 / interlace=0 / total-frames=202824 / level-idc=0 / high-tier=1 / uhd-bd=0 / ref=5 / no-allow-non-conformance / no-repeat-headers / annexb / no-aud / no-hrd / info / hash=0 / no-temporal-layers / open-gop / min-keyint=23 / keyint=250 / gop-lookahead=0 / bframes=8 / b-adapt=2 / b-pyramid / bframe-bias=0 / rc-lookahead=40 / lookahead-slices=4 / scenecut=40 / radl=0 / no-splice / no-intra-refresh / ctu=64 / min-cu-size=8 / rect / no-amp / max-tu-size=32 / tu-inter-depth=1 / tu-intra-depth=1 / limit-tu=0 / rdoq-level=2 / dynamic-rd=0.00 / ssim-rd / signhide / no-tskip / nr-intra=0 / nr-inter=0 / no-constrained-intra / strong-intra-smoothing / max-merge=3 / limit-refs=3 / limit-modes / me=3 / subme=3 / merange=57 / temporal-mvp / weightp / no-weightb / no-analyze-src-pics / deblock=0:0 / sao / no-sao-non-deblock / rd=4 / no-early-skip / rskip / no-fast-intra / no-tskip-fast / no-cu-lossless / no-b-intra / no-splitrd-skip / rdpenalty=0 / psy-rd=0.00 / psy-rdoq=1.00 / no-rd-refine / no-lossless / cbqpoffs=0 / crqpoffs=0 / rc=abr / bitrate=3650 / qcomp=0.60 / qpstep=4 / stats-write=0 / stats-read=2 / cplxblur=20.0 / qblur=0.5 / ipratio=1.40 / pbratio=1.30 / aq-mode=3 / aq-strength=1.00 / cutree / zone-count=0 / no-strict-cbr / qg-size=32 / no-rc-grain / qpmax=69 / qpmin=0 / no-const-vbv / sar=0 / overscan=0 / videoformat=5 / range=0 / colorprim=2 / transfer=2 / colormatrix=2 / chromaloc=0 / display-window=0 / max-cll=0,0 / min-luma=0 / max-luma=1023 / log2-max-poc-lsb=8 / vui-timing-info / vui-hrd-info / slices=1 / no-opt-qp-pps / no-opt-ref-list-length-pps / no-multi-pass-opt-rps / scenecut-bias=0.05 / no-opt-cu-delta-qp / aq-motion / no-hdr / no-hdr-opt / no-dhdr10-opt / no-idr-recovery-sei / analysis-reuse-level=5 / scale-factor=0 / refine-intra=0 / refine-inter=0 / refine-mv=0 / refine-ctu-distortion=0 / no-limit-sao / ctu-info=0 / no-lowpass-dct / refine-analysis-type=0 / copy-pic=1 / max-ausize-factor=1.0 / no-dynamic-refine / no-single-sei / hevc-aq / qp-adaptation-range=1.00
Default : Yes
Forced : No

Audio #1
ID : 2
Format : AC-3
Format/Info : Audio Coding 3
Commercial name : Dolby Digital
Codec ID : A_AC3
Duration : 2 h 20 min
Bit rate mode : Constant
Bit rate : 448 kb/s
Channel(s) : 6 channels
Channel layout : L R C LFE Ls Rs
Sampling rate : 48.0 kHz
Frame rate : 31.250 FPS (1536 SPF)
Bit depth : 16 bits
Compression mode : Lossy
Stream size : 452 MiB (10%)
Title : Org Ext. BD 5.1 448Kbps ~ TombDoc
Language : Hindi
Service kind : Complete Main
Default : Yes
Forced : Yes

Audio #2
ID : 3
Format : AC-3
Format/Info : Audio Coding 3
Commercial name : Dolby Digital
Codec ID : A_AC3
Duration : 2 h 20 min
Bit rate mode : Constant
Bit rate : 384 kb/s
Channel(s) : 6 channels
Channel layout : L R C LFE Ls Rs
Sampling rate : 48.0 kHz
Frame rate : 31.250 FPS (1536 SPF)
Bit depth : 16 bits
Compression mode : Lossy
Stream size : 387 MiB (9%)
Title : DD 5.1 English
Language : English
Service kind : Complete Main
Default : No
Forced : No

Text
ID : 4
Format : PGS
Muxing mode : zlib
Codec ID : S_HDMV/PGS
Codec ID/Info : Picture based subtitle format used on BDs/HD-DVDs
Duration : 2 h 20 min
Bit rate : 26.8 kb/s
Count of elements : 3126
Stream size : 27.0 MiB (1%)
Title : Eng BD-PGS-SDH
Language : English
Default : Yes
Forced : Yes

Menu
00:00:00.000 : :Chapter 1
00:07:15.310 : :Chapter 2
00:22:19.713 : :Chapter 3
00:34:26.856 : :Chapter 4
00:47:43.652 : :Chapter 5
00:57:10.761 : :Chapter 6
01:05:06.111 : :Chapter 7
01:18:47.431 : :Chapter 8
01:27:32.372 : :Chapter 9
01:41:58.821 : :Chapter 10
01:50:17.319 : :Chapter 11
01:58:50.999 : :Chapter 12
02:07:40.486 : :Chapter 13



Code:

Source: Fantastic Beasts The Crimes of Grindelwald 2018 Extended 1080p CEE Blu-ray AVC TrueHD 7.1-GUACAMOLE





#McuDudeS -> To avoid fakes, ALWAYS check that the torrent was added on ExtraTorrent.ag by McuDudeS

https://extratorrent.ag/



Download Fantastic Beasts: The Crimes of Grindelwald (2018) Extended 1080p 10bit Bluray x265 HEVC [Org BD 5.1 Hindi + DD 5.1 English] ESub ~ TombDoc torrent


Comments (please add your comment)
1
posted by samantaL (2019-03-14 14:04:39)
samantaL avatar Tired of ordinary p0rn? Sign up here -> pussy.ga


2
posted by samantaL (2019-03-14 14:27:58)
samantaL avatar Tired of ordinary p0rn? Sign up here -> pussy.ga





Home - Browse Torrents - Upload Torrent - Stat - Forum - FAQ - Login
ExtraTorrent.ag is in compliance with copyrights
2006-2018 ExtraTorrent.ag