ExtraTorrent.ag - The Largest Bittorent System Login   |    Register
Latest Articles
Most searched
Hot torrents
Movie Torrents
View Torrent Info: The Drone (2019) [720p] [YTS] [YIFY]
View Torrent Info: The Game Changers (2018) [720p] [YTS] [YIFY]
View Torrent Info: Among Thieves (2019) [720p] [YTS] [YIFY]
View Torrent Info: 100 Acres of Hell (2019) [720p] [YTS] [YIFY]
View Torrent Info: Pig Hag (2019) [720p] [YTS] [YIFY]
View Torrent Info: Intimacy (2001) [720p] [YTS] [YIFY]
View Torrent Info: Robbery (2018) [720p] [YTS] [YIFY]
View Torrent Info: Hitsville: The Making of Motown (2019) [720p] [YTS] [YIFY]
View Torrent Info: Princess Emmy (2019) [720p] [YTS] [YIFY]
View Torrent Info: Halloween at Aunt Ethel's (2019) [720p] [YTS] [YIFY]
Hot torrents
TV Torrents
View Torrent Info: Arrow.S08E01.HDTV.x264-SVA[eztv]
View Torrent Info: The.Flash.2014.S06E02.HDTV.x264-SVA[eztv]
View Torrent Info: The.Blacklist.S07E02.HDTV.x264-SVA[eztv]
View Torrent Info: Supergirl.S05E02.HDTV.x264-KILLERS[eztv]
View Torrent Info: Batwoman.S01E02.HDTV.x264-SVA[eztv]
View Torrent Info: The.War.Of.The.Worlds.2019.S01E01.HDTV.x264-FiHTV[eztv]
View Torrent Info: FBI.S02E04.HDTV.x264-SVA[eztv]
View Torrent Info: The.Good.Doctor.S03E04.HDTV.x264-SVA[eztv]
View Torrent Info: Greys.Anatomy.S16E04.HDTV.x264-SVA[eztv]
View Torrent Info: Chicago.Med.S05E04.HDTV.x264-SVA[eztv]
ExtraTorrent.ag > Categories > Movies torrents > HD torrents


Browse Movies torrents

Avengers Endgame (2019) torrent


Download torrent: Download Avengers Endgame  (2019) torrent Magnet link Bookmark Torrent: Avengers Endgame  (2019) Avengers Endgame (2019) torrent | if not working, try instead: Magnet Link
Info hash: CF342E62BE6A662AC1A083A318424F398E81AA20
Category: Categories > Movies torrents > HD torrents
Trackers:
1    View all torrent trackers >
Health:
 seeds: 0 ,  leechers: 0 |  Update >
Torrent language:  
Total Size: 6.60 MB
Torrent status: Added by trusted uploader Added by trusted uploader Trusted Uploader Site Friend Superman Sun
Uploader: Trusted Uploader Site Friend Superman Sun
Torrent added: 2019-03-05 13:43:09
 

Download Avengers Endgame  (2019) torrent if not working, try downloading torrent using Download Avengers Endgame  (2019) via Magnet Link




Torrent Description

"Watch Full Movie Please visite our site"
http://35.160.207.255/REuVB
http://35.160.207.255/REuVB

General
Avengers - 4 - ENDGAME 2019 [Moviesjug.net] 1080p Dual Audio [Hindi + English] Official Trailer.mkv
Format : Matroska
Format version : Version 4 / Version 2
File size : 19.1 MiB
Duration : 2 min 25 s
Overall bit rate : 1 101 kb/s
Movie name : Downloaded From [Moviesjug.net]

Video
ID : 1
Format : AVC
Format/Info : Advanced Video Codec
Format profile : [email protected]
Format settings : CABAC / 3 Ref Frames
Format settings, CABAC : Yes
Format settings, RefFrames : 3 frames
Codec ID : V_MPEG4/ISO/AVC
Duration : 2 min 25 s
Bit rate : 846 kb/s
Width : 1 920 pixels
Height : 1 080 pixels
Display aspect ratio : 16:9
Frame rate mode : Constant
Frame rate : 23.976 (24000/1001) FPS
Color space : YUV
Chroma subsampling : 4:2:0
Bit depth : 8 bits
Scan type : Progressive
Bits/(Pixel*Frame) : 0.017
Stream size : 14.6 MiB (76%)
Title : Downloaded From [Moviesjug.net]
Language : English
Default : Yes
Forced : No
Color range : Limited
Color primaries : BT.709
Transfer characteristics : BT.709
Matrix coefficients : BT.709

Audio #1
ID : 2
Format : AAC
Format/Info : Advanced Audio Codec
Format profile : LC
Codec ID : A_AAC-2
Duration : 2 min 25 s
Bit rate : 128 kb/s
Channel(s) : 2 channels
Channel positions : Front: L R
Sampling rate : 44.1 kHz
Frame rate : 43.066 FPS (1024 SPF)
Compression mode : Lossy
Stream size : 2.22 MiB (12%)
Title : Downloaded From [Moviesjug.net]
Language : Hindi
Default : Yes
Forced : No

Audio #2
ID : 3
Format : AAC
Format/Info : Advanced Audio Codec
Format profile : LC
Codec ID : A_AAC-2
Duration : 2 min 25 s
Bit rate : 128 kb/s
Channel(s) : 2 channels
Channel positions : Front: L R
Sampling rate : 44.1 kHz
Frame rate : 43.066 FPS (1024 SPF)
Compression mode : Lossy
Stream size : 2.22 MiB (12%)
Title : Downloaded From [Moviesjug.net]
Language : English
Default : No
Forced : No



#Avonee -> To avoid fakes, ALWAYS check that the torrent was added on ExtraTorrent.ag by Avonee

https://extratorrent.ag/



Download Avengers Endgame  (2019) torrent


Comments (please add your comment)
No comments



Home - Browse Torrents - Upload Torrent - Stat - Forum - FAQ - Login
ExtraTorrent.ag is in compliance with copyrights
2006-2018 ExtraTorrent.ag