ExtraTorrent.ag - The Largest Bittorent System Login   |    Register
ExtraTorrent.ag > Categories > Movies torrents > Dubbed /Dual Audio torrents


Browse Movies torrents

The Possession of Hannah Grace 2018 {Dual Audio} 1080p BluRay { Hindi DD 51.CH Org BD - English } H264 AAC Esubs - 2.01 GB torrent


Download torrent: Download The Possession of Hannah Grace 2018 {Dual Audio} 1080p BluRay { Hindi DD 51.CH Org BD - English } H264 AAC Esubs - 2.01 GB torrent Magnet link Bookmark Torrent: The Possession of Hannah Grace 2018 {Dual Audio} 1080p BluRay { Hindi DD 51.CH Org BD - English } H264 AAC Esubs - 2.01 GB The Possession of Hannah Grace 2018 {Dual Audio} 1080p BluRay { Hindi DD 51.CH Org BD - English } H264 AAC Esubs - 2.01 GB torrent | if not working, try instead: Magnet Link
Info hash: 51DC46C2D2E84BDE090A1DE74337E694D70DECF6
Category: Categories > Movies torrents > Dubbed /Dual Audio torrents
Trackers:
1    View all torrent trackers >
Health:
 seeds: 1 ,  leechers: 1 |  Update >
Total Size: 2.00 GB
Torrent status: Added by trusted uploader Added by trusted uploader Trusted Uploader Site Friend Superman Sun
Uploader: Trusted Uploader Site Friend Superman Sun
Torrent added: 2019-02-18 06:06:35

Download The Possession of Hannah Grace 2018 {Dual Audio} 1080p BluRay { Hindi DD 51.CH Org BD - English } H264 AAC Esubs - 2.01 GB torrent if not working, try downloading torrent using Download The Possession of Hannah Grace 2018 {Dual Audio} 1080p BluRay { Hindi DD 51.CH Org BD - English } H264 AAC Esubs - 2.01 GB via Magnet Link




Torrent Description

The Possession of Hannah Grace 2018 {Dual Audio} 1080p BluRay { Hindi DD 51.CH Org BD - English } H264 AAC Esubs - 2.01 GB







INFO :-

For Google Drive Download Links, Download Links and Online watch Links ~ Visit :- Filmmaza.org/




[b]Media Information




General


Format                      : Matroska
Format version              : Version 4 / Version 2
File size                   : 2.02 GiB
Duration                    : 1 h 25 min
Overall bit rate            : 3 374 kb/s
Movie name                  : Visit : Filmmaza.org
Encoded date                : UTC 2019-02-18 03:26:01
Writing application         : mkvmerge v20.0.0 ('I Am The Sun') 64-bit
Writing library             : libebml v1.3.5 + libmatroska v1.4.8


Video


ID                          : 1
Format                      : AVC
Format/Info                 : Advanced Video Codec
Format profile              : [email protected]
Format settings             : CABAC / 4 Ref Frames
Format settings, CABAC      : Yes
Format settings, ReFrames   : 4 frames
Codec ID                    : V_MPEG4/ISO/AVC
Duration                    : 1 h 25 min
Bit rate                    : 2 500 kb/s
Width                       : 1 920 pixels
Height                      : 808 pixels
Display aspect ratio        : 2.40:1
Frame rate mode             : Constant
Frame rate                  : 23.976 (23976/1000) FPS
Color space                 : YUV
Chroma subsampling          : 4:2:0
Bit depth                   : 8 bits
Scan type                   : Progressive
Bits/(Pixel*Frame)          : 0.067
Stream size                 : 1.50 GiB (74%)
Title                       : Filmmaza.org
Writing library             : x264 core 152 r2851M ba24899
Encoding settings           : cabac=1 / ref=4 / deblock=1:-1:-1 / analyse=0x3:0x113 / me=umh / subme=9 / psy=1 / psy_rd=1.00:0.15 / mixed_ref=1 / me_range=24 / chroma_me=1 / trellis=2 / 8x8dct=1 / cqm=0 / deadzone=21,11 / fast_pskip=1 / chroma_qp_offset=-3 / threads=32 / lookahead_threads=4 / sliced_threads=0 / nr=0 / decimate=1 / interlaced=0 / bluray_compat=0 / constrained_intra=0 / bframes=3 / b_pyramid=2 / b_adapt=2 / b_bias=0 / direct=3 / weightb=1 / open_gop=0 / weightp=2 / keyint=250 / keyint_min=25 / scenecut=40 / intra_refresh=0 / rc_lookahead=50 / rc=2pass / mbtree=1 / bitrate=2500 / ratetol=1.0 / qcomp=0.60 / qpmin=0 / qpmax=69 / qpstep=4 / cplxblur=20.0 / qblur=0.5 / vbv_maxrate=31250 / vbv_bufsize=31250 / nal_hrd=none / filler=0 / ip_ratio=1.40 / aq=3:1.00
Language                    : English
Default                     : Yes
Forced                      : Yes


Audio #1


ID                          : 2
Format                      : AC-3
Format/Info                 : Audio Coding 3
Codec ID                    : A_AC3
Duration                    : 1 h 25 min
Bit rate mode               : Constant
Bit rate                    : 640 kb/s
Channel(s)                  : 6 channels
Channel positions           : Front: L C R, Side: L R, LFE
Sampling rate               : 48.0 kHz
Frame rate                  : 31.250 FPS (1536 SPF)
Bit depth                   : 16 bits
Compression mode            : Lossy
Delay relative to video     : -43 ms
Stream size                 : 393 MiB (19%)
Title                       : Filmmaza.org
Language                    : Hindi
Service kind                : Complete Main
Default                     : Yes
Forced                      : Yes


Audio #2


ID                          : 3
Format                      : AAC
Format/Info                 : Advanced Audio Codec
Format profile              : LC
Codec ID                    : A_AAC-2
Duration                    : 1 h 25 min
Bit rate                    : 224 kb/s
Channel(s)                  : 6 channels
Channel positions           : Front: L C R, Side: L R, LFE
Sampling rate               : 48.0 kHz
Frame rate                  : 46.875 FPS (1024 SPF)
Compression mode            : Lossy
Delay relative to video     : -43 ms
Stream size                 : 137 MiB (7%)
Title                       : Filmmaza.org
Language                    : English
Default                     : No
Forced                      : No


Text #1


ID                          : 4
Format                      : VobSub
Muxing mode                 : zlib
Codec ID                    : S_VOBSUB
Codec ID/Info               : Picture based subtitle format used on DVDs
Duration                    : 1 h 20 min
Bit rate                    : 5 458 b/s
Count of elements           : 603
Stream size                 : 3.15 MiB (0%)
Title                       : Filmmaza.org
Language                    : English
Default                     : No
Forced                      : No


Text #2


ID                          : 5
Format                      : VobSub
Muxing mode                 : zlib
Codec ID                    : S_VOBSUB
Codec ID/Info               : Picture based subtitle format used on DVDs
Duration                    : 1 h 23 min
Bit rate                    : 6 953 b/s
Count of elements           : 831
Stream size                 : 4.13 MiB (0%)
Title                       : Filmmaza.org
Language                    : English
Default                     : No
Forced                      : No


Text #3


ID                          : 6
Format                      : UTF-8
Codec ID                    : S_TEXT/UTF8
Codec ID/Info               : UTF-8 Plain Text
Duration                    : 1 h 18 min
Bit rate                    : 0 b/s
Count of elements           : 7
Stream size                 : 466 Bytes (0%)
Title                       : Filmmaza.org
Default                     : Yes
Forced                      : Yes















[/b]



#Simple2018 -> To avoid fakes, ALWAYS check that the torrent was added on ExtraTorrent.ag by Simple2018

https://extratorrent.ag/



Download The Possession of Hannah Grace 2018 {Dual Audio} 1080p BluRay { Hindi DD 51.CH Org BD - English } H264 AAC Esubs - 2.01 GB torrent


Comments (please add your comment)
No comments



Home - Browse Torrents - Upload Torrent - Stat - Forum - FAQ - Login
ExtraTorrent.ag is in compliance with copyrights
2006-2020 ExtraTorrent.ag