ExtraTorrent.ag - The Largest Bittorent System Login   |    Register
Latest Articles
Most searched
Hot torrents
Movie Torrents
View Torrent Info: Angel Has Fallen (2019) [720p] [YTS] [YIFY]
View Torrent Info: Noelle (2019) [720p] [YTS] [YIFY]
View Torrent Info: Lady and the Tramp (2019) [720p] [YTS] [YIFY]
View Torrent Info: Don't Let Go (2019) [720p] [YTS] [YIFY]
View Torrent Info: Dino King 3D: Journey to Fire Mountain (2019) [720p] [YTS] [YIFY]
View Torrent Info: The Death and Return of Superman (2019) [720p] [YTS] [YIFY]
View Torrent Info: Acceleration (2019) [720p] [YTS] [YIFY]
View Torrent Info: The Bygone (2019) [720p] [YTS] [YIFY]
View Torrent Info: Let It Snow (2019) [720p] [YTS] [YIFY]
View Torrent Info: Up There (2019) [720p] [YTS] [YIFY]
Hot torrents
TV Torrents
View Torrent Info: The.Mandalorian.S01E01.WEB.x264-PHOENiX[eztv]
View Torrent Info: Greys.Anatomy.S16E08.HDTV.x264-SVA[eztv]
View Torrent Info: The.Good.Doctor.S03E07.HDTV.x264-KILLERS[eztv]
View Torrent Info: FBI.S02E07.HDTV.x264-SVA[eztv]
View Torrent Info: Supergirl.S05E06.HDTV.x264-KILLERS[eztv]
View Torrent Info: The.Rookie.S02E07.HDTV.x264-SVA[eztv]
View Torrent Info: Batwoman.S01E06.HDTV.x264-KILLERS[eztv]
View Torrent Info: The.Blacklist.S07E06.HDTV.x264-SVA[eztv]
View Torrent Info: NCIS.S17E07.HDTV.x264-SVA[eztv]
View Torrent Info: New.Amsterdam.2018.S02E08.HDTV.x264-KILLERS[eztv]
ExtraTorrent.ag > Categories > Movies torrents > Dubbed /Dual Audio torrents


Browse Movies torrents

Jurassic Park Trilogy (1993 - 2001) 1080p BluRay x264 Dual Audio [Hindi DD5.1 - English DD5.1] - MSUBS ~ Ranvijay torrent


Download torrent: Download Jurassic Park Trilogy (1993 - 2001) 1080p BluRay x264 Dual Audio [Hindi DD5.1 - English DD5.1] - MSUBS ~ Ranvijay torrent Magnet link Bookmark Torrent: Jurassic Park Trilogy (1993 - 2001) 1080p BluRay x264 Dual Audio [Hindi DD5.1 - English DD5.1] - MSUBS ~ Ranvijay Jurassic Park Trilogy (1993 - 2001) 1080p BluRay x264 Dual Audio [Hindi DD5.1 - English DD5.1] - MSUBS ~ Ranvijay torrent | if not working, try instead: Magnet Link
Info hash: 1B7C0E1421511A343AEACB81CC359969F0E07065
Category: Categories > Movies torrents > Dubbed /Dual Audio torrents
Trackers:
30    View all torrent trackers >
Health:
 seeds: 98 ,  leechers: 26 |  Update >
Total Size: 13.60 GB
Torrent status: Added by trusted uploader Added by trusted uploader Trusted Uploader Site Friend Superman Sun
Uploader: Trusted Uploader Site Friend Superman Sun
Torrent added: 2019-02-04 19:07:45
 

Download Jurassic Park Trilogy (1993 - 2001) 1080p BluRay x264 Dual Audio [Hindi DD5.1 - English DD5.1] - MSUBS ~ Ranvijay torrent if not working, try downloading torrent using Download Jurassic Park Trilogy (1993 - 2001) 1080p BluRay x264 Dual Audio [Hindi DD5.1 - English DD5.1] - MSUBS ~ Ranvijay via Magnet Link




Torrent Description







Jurassic Park Trilogy (1993 - 2001) 1080p BluRay x264 Dual Audio [Hindi DD5.1 - English DD5.1] - MSUBS ~ Ranvijay

Thanks To Hammer Bro For Hindi Audio


Jurassic Park (1993) 1080p BluRay x264 Dual Audio [Hindi DD5.1 - English DD5.1] - MSUBS ~ Ranvijay


Format                                   : Matroska
Format version                           : Version 4 / Version 2
File size                                : 4.96 GiB
Duration                                 : 2 h 6 min
Overall bit rate                         : 5 613 kb/s
Movie name                               : Jurassic Park (1993) 1080p BluRay x264 Dual Audio [Hindi DD5.1 - English DD5.1] - MSUBS ~ Ranvijay

Video
ID                                       : 1
Format                                   : AVC
Format/Info                              : Advanced Video Codec
Duration                                 : 2 h 6 min
Bit rate                                 : 4 500 kb/s
Width                                    : 1 920 pixels
Height                                   : 1 080 pixels
Display aspect ratio                     : 16:9
Frame rate mode                          : Constant
Frame rate                               : 23.976 (24000/1001) FPS
Color space                              : YUV
Chroma subsampling                       : 4:2:0
Bit depth                                : 8 bits
Scan type                                : Progressive
Bits/(Pixel*Frame)                       : 0.091
Stream size                              : 3.98 GiB (80%)
Title                                    : ~Ranvijay~

Audio #1
ID                                       : 2
Format                                   : AC-3
Duration                                 : 2 h 6 min
Bit rate mode                            : Constant
Bit rate                                 : 640 kb/s
Channel(s)                               : 6 channels
Channel positions                        : Front: L C R, Side: L R, LFE
Title                                    : ~Ranvijay~
Language                                 : Hindi

Audio #2
ID                                       : 3
Format                                   : AC-3
Duration                                 : 2 h 6 min
Bit rate mode                            : Constant
Bit rate                                 : 448 kb/s
Channel(s)                               : 6 channels
Channel positions                        : Front: L C R, Side: L R, LFE
Title                                    : ~Ranvijay~
Language                                 : English

Text #1
ID                                       : 4
Format                                   : PGS
Title                                    : ~Ranvijay~
Language                                 : English

Text #2
ID                                       : 5
Format                                   : PGS
Title                                    : ~Ranvijay~
Language                                 : Hindi

Chapter                                 : Yes










The Lost World - Jurassic Park (1997) 1080p BluRay x264 Dual Audio [Hindi DD2.0 - English DD5.1] - MSUBS ~ Ranvijay


Format                                   : Matroska
Format version                           : Version 4 / Version 2
File size                                : 4.67 GiB
Duration                                 : 2 h 8 min
Overall bit rate                         : 5 195 kb/s
Movie name                               : The Lost World - Jurassic Park (1997) 1080p BluRay x264 Dual Audio [Hindi DD2.0 - English DD5.1] - MSUBS ~ Ranvijay

Video
ID                                       : 1
Format                                   : AVC
Format/Info                              : Advanced Video Codec
Duration                                 : 2 h 8 min
Bit rate                                 : 4 500 kb/s
Width                                    : 1 920 pixels
Height                                   : 1 080 pixels
Display aspect ratio                     : 16:9
Frame rate mode                          : Constant
Frame rate                               : 23.976 (24000/1001) FPS
Color space                              : YUV
Chroma subsampling                       : 4:2:0
Bit depth                                : 8 bits
Scan type                                : Progressive
Bits/(Pixel*Frame)                       : 0.091
Stream size                              : 4.04 GiB (87%)
Title                                    : ~Ranvijay~

Audio #1
ID                                       : 2
Format                                   : AC-3
Duration                                 : 2 h 8 min
Bit rate mode                            : Constant
Bit rate                                 : 224 kb/s
Channel(s)                               : 2 channels
Channel positions                        : Front: L R
Title                                    : ~Ranvijay~
Language                                 : Hindi

Audio #2
ID                                       : 3
Format                                   : AC-3
Duration                                 : 2 h 8 min
Bit rate mode                            : Constant
Bit rate                                 : 448 kb/s
Channel(s)                               : 6 channels
Channel positions                        : Front: L C R, Side: L R, LFE
Title                                    : ~Ranvijay~
Language                                 : English

Text #1
ID                                       : 4
Format                                   : PGS
Title                                    : ~Ranvijay~
Language                                 : English

Text #2
ID                                       : 5
Format                                   : PGS
Title                                    : ~Ranvijay~
Language                                 : Hindi

Chapter                                 : Yes










Jurassic Park III (2001) 1080p BluRay x264 Dual Audio [Hindi DD5.1 - English DD5.1] - MSUBS ~ Ranvijay


Format                                   : Matroska
Format version                           : Version 4 / Version 2
File size                                : 3.95 GiB
Duration                                 : 1 h 32 min
Overall bit rate                         : 6 127 kb/s
Movie name                               : Jurassic Park III (2001) 1080p BluRay x264 Dual Audio [Hindi DD5.1 - English DD5.1] - MSUBS ~ Ranvijay

Video
ID                                       : 1
Format                                   : AVC
Format/Info                              : Advanced Video Codec
Duration                                 : 1 h 32 min
Bit rate                                 : 5 000 kb/s
Width                                    : 1 920 pixels
Height                                   : 1 080 pixels
Display aspect ratio                     : 16:9
Frame rate mode                          : Constant
Frame rate                               : 23.976 (24000/1001) FPS
Color space                              : YUV
Chroma subsampling                       : 4:2:0
Bit depth                                : 8 bits
Scan type                                : Progressive
Bits/(Pixel*Frame)                       : 0.101
Stream size                              : 3.22 GiB (82%)
Title                                    : ~Ranvijay~

Audio #1
ID                                       : 2
Format                                   : AC-3
Duration                                 : 1 h 32 min
Bit rate mode                            : Constant
Bit rate                                 : 640 kb/s
Channel(s)                               : 6 channels
Channel positions                        : Front: L C R, Side: L R, LFE
Title                                    : ~Ranvijay~
Language                                 : Hindi

Audio #2
ID                                       : 3
Format                                   : AC-3
Duration                                 : 1 h 32 min
Bit rate mode                            : Constant
Bit rate                                 : 448 kb/s
Channel(s)                               : 6 channels
Channel positions                        : Front: L C R, Side: L R, LFE
Title                                    : ~Ranvijay~
Language                                 : English

Text #1
ID                                       : 4
Format                                   : PGS
Title                                    : ~Ranvijay~
Language                                 : English

Text #2
ID                                       : 5
Format                                   : PGS
Title                                    : ~Ranvijay~
Language                                 : English

Text #3
ID                                       : 6
Format                                   : PGS
Title                                    : ~Ranvijay~
Language                                 : Hindi

Text #4
ID                                       : 7
Format                                   : PGS
Title                                    : ~Ranvijay~
Language                                 : Hindi











Don't walk as you are king, walk as you don't care who the king is....!!




#TheFighter -> To avoid fakes, ALWAYS check that the torrent was added on ExtraTorrent.ag by TheFighter

https://extratorrent.ag/



Download Jurassic Park Trilogy (1993 - 2001) 1080p BluRay x264 Dual Audio [Hindi DD5.1 - English DD5.1] - MSUBS ~ Ranvijay torrent


Comments (please add your comment)
No comments



Home - Browse Torrents - Upload Torrent - Stat - Forum - FAQ - Login
ExtraTorrent.ag is in compliance with copyrights
2006-2018 ExtraTorrent.ag