ExtraTorrent.ag - The Largest Bittorent System Login   |    Register
Latest Articles
Most searched
Hot torrents
Movie Torrents
View Torrent Info: Long Shot (2019) [720p] [YTS] [YIFY]
View Torrent Info: The Intruder (2019) [720p] [YTS] [YIFY]
View Torrent Info: The Curse of La Llorona (2019) [720p] [YTS] [YIFY]
View Torrent Info: UglyDolls (2019) [720p] [YTS] [YIFY]
View Torrent Info: Big Brother (2018) [720p] [YTS] [YIFY]
View Torrent Info: Secret Obsession (2019) [720p] [YTS] [YIFY]
View Torrent Info: Union Bound (2019) [720p] [YTS] [YIFY]
View Torrent Info: I Got the Hook Up 2 (2019) [720p] [YTS] [YIFY]
View Torrent Info: The Revenant (2009) [720p] [YTS] [YIFY]
View Torrent Info: The Last House on the Left (2009) [720p] [YTS] [YIFY]
Hot torrents
TV Torrents
View Torrent Info: Marvels.Agents.of.S.H.I.E.L.D.S06E09.HDTV.x264-SVA[eztv]
View Torrent Info: Elementary.S07E09.HDTV.x264-KILLERS[eztv]
View Torrent Info: the.100.s06e10.web.h264-tbs[eztv]
View Torrent Info: The.100.S06E10.HDTV.x264-CRAVERS[eztv]
View Torrent Info: big.little.lies.s02e06.web.h264-tbs[eztv]
View Torrent Info: Pandora.2019.S01E01.HDTV.x264-KILLERS[eztv]
View Torrent Info: The.Handmaids.Tale.S03E09.WEB.x264-PHOENiX[eztv]
View Torrent Info: Krypton.S02E06.HDTV.x264-SVA[eztv]
View Torrent Info: Blood.and.Treasure.S01E10.HDTV.x264-KILLERS[eztv]
View Torrent Info: Suits.S09E01.480p.x264-mSD[eztv]
ExtraTorrent.ag > Categories > Movies torrents > Dubbed /Dual Audio torrents


Browse Movies torrents

Total Recall (2012) Extended DC 1080p 10bit Bluray x265 HEVC [Org BD 5.1 Hindi + DD 5.1 English] MSubs ~ TombDoc torrent


Download torrent: Download Total Recall (2012) Extended DC 1080p 10bit Bluray x265 HEVC [Org BD 5.1 Hindi + DD 5.1 English] MSubs ~ TombDoc torrent Magnet link Bookmark Torrent: Total Recall (2012) Extended DC 1080p 10bit Bluray x265 HEVC [Org BD 5.1 Hindi + DD 5.1 English] MSubs ~ TombDoc Total Recall (2012) Extended DC 1080p 10bit Bluray x265 HEVC [Org BD 5.1 Hindi + DD 5.1 English] MSubs ~ TombDoc torrent | if not working, try instead: Magnet Link
Info hash: FBFCDC6B5A742B08C298E3FBA9407D88F9D842F3
Category: Categories > Movies torrents > Dubbed /Dual Audio torrents
Trackers:
20    View all torrent trackers >
Health:
 seeds: 0 ,  leechers: 0 |  Update >
Total Size: 4.10 GB
Torrent status: Added by trusted uploader Added by trusted uploader Trusted Uploader Site Friend Superman Sun
Uploader: Trusted Uploader Site Friend Superman Sun
Torrent added: 2019-01-21 16:23:08
 

Download Total Recall (2012) Extended DC 1080p 10bit Bluray x265 HEVC [Org BD 5.1 Hindi + DD 5.1 English] MSubs ~ TombDoc torrent if not working, try downloading torrent using Download Total Recall (2012) Extended DC 1080p 10bit Bluray x265 HEVC [Org BD 5.1 Hindi + DD 5.1 English] MSubs ~ TombDoc via Magnet Link




Torrent Description



Is it real Is it recall...





Total Recall (2012) Extended DC 1080p 10bit Bluray x265 HEVC [Org BD 5.1 Hindi + DD 5.1 English] MSubs ~ TombDoc


Code:

Format : Matroska
Format version : Version 4
File size : 4.01 GiB
Duration : 2 h 10 min
Overall bit rate : 4 402 kb/s
Writing frontend : TombDoc

Video
ID : 1
Format : HEVC
Format/Info : High Efficiency Video Coding
Format profile : Main [email protected]@Main
Codec ID : V_MPEGH/ISO/HEVC
Duration : 2 h 10 min
Bit rate : 3 349 kb/s
Width : 1 920 pixels
Height : 800 pixels
Display aspect ratio : 2.40:1
Frame rate mode : Constant
Frame rate : 23.976 (24000/1001) FPS
Color space : YUV
Chroma subsampling : 4:2:0
Bit depth : 10 bits
Bits/(Pixel*Frame) : 0.091
Stream size : 3.05 GiB (76%)
Writing library : x265 2.9+2-7e978ed93d60:[Windows][GCC 8.2.0][64 bit] 10bit
Encoding settings : cpuid=1049583 / frame-threads=3 / numa-pools=8 / wpp / no-pmode / no-pme / no-psnr / no-ssim / log-level=2 / input-csp=1 / input-res=1920x800 / interlace=0 / total-frames=187404 / level-idc=0 / high-tier=1 / uhd-bd=0 / ref=4 / no-allow-non-conformance / no-repeat-headers / annexb / no-aud / no-hrd / info / hash=0 / no-temporal-layers / open-gop / min-keyint=23 / keyint=250 / gop-lookahead=0 / bframes=8 / b-adapt=2 / b-pyramid / bframe-bias=0 / rc-lookahead=25 / lookahead-slices=4 / scenecut=40 / radl=0 / no-intra-refresh / ctu=64 / min-cu-size=8 / rect / no-amp / max-tu-size=32 / tu-inter-depth=1 / tu-intra-depth=1 / limit-tu=0 / rdoq-level=2 / dynamic-rd=0.00 / no-ssim-rd / signhide / no-tskip / nr-intra=0 / nr-inter=0 / no-constrained-intra / strong-intra-smoothing / max-merge=3 / limit-refs=3 / limit-modes / me=3 / subme=3 / merange=57 / temporal-mvp / weightp / no-weightb / no-analyze-src-pics / deblock=0:0 / sao / no-sao-non-deblock / rd=4 / no-early-skip / rskip / no-fast-intra / no-tskip-fast / no-cu-lossless / no-b-intra / no-splitrd-skip / rdpenalty=0 / psy-rd=2.00 / psy-rdoq=1.00 / no-rd-refine / no-lossless / cbqpoffs=0 / crqpoffs=0 / rc=abr / bitrate=3350 / qcomp=0.60 / qpstep=4 / stats-write=0 / stats-read=2 / cplxblur=20.0 / qblur=0.5 / ipratio=1.40 / pbratio=1.30 / aq-mode=3 / aq-strength=1.00 / cutree / zone-count=0 / no-strict-cbr / qg-size=32 / no-rc-grain / qpmax=69 / qpmin=0 / no-const-vbv / sar=0 / overscan=0 / videoformat=5 / range=0 / colorprim=2 / transfer=2 / colormatrix=2 / chromaloc=0 / display-window=0 / max-cll=0,0 / min-luma=0 / max-luma=1023 / log2-max-poc-lsb=8 / vui-timing-info / vui-hrd-info / slices=1 / no-opt-qp-pps / no-opt-ref-list-length-pps / no-multi-pass-opt-rps / scenecut-bias=0.05 / no-opt-cu-delta-qp / aq-motion / no-hdr / no-hdr-opt / no-dhdr10-opt / no-idr-recovery-sei / analysis-reuse-level=5 / scale-factor=0 / refine-intra=0 / refine-inter=0 / refine-mv=0 / no-limit-sao / ctu-info=0 / no-lowpass-dct / refine-mv-type=0 / copy-pic=1 / max-ausize-factor=1.0 / no-dynamic-refine / no-single-sei
Default : Yes
Forced : No

Audio #1
ID : 2
Format : AC-3
Format/Info : Audio Coding 3
Commercial name : Dolby Digital
Codec ID : A_AC3
Duration : 2 h 10 min
Bit rate mode : Constant
Bit rate : 640 kb/s
Channel(s) : 6 channels
Channel layout : L R C LFE Ls Rs
Sampling rate : 48.0 kHz
Frame rate : 31.250 FPS (1536 SPF)
Bit depth : 16 bits
Compression mode : Lossy
Stream size : 596 MiB (15%)
Title : Org BD 5.1 640Kbps ~ TombDoc
Language : Hindi
Service kind : Complete Main
Default : Yes
Forced : Yes

Audio #2
ID : 3
Format : AC-3
Format/Info : Audio Coding 3
Commercial name : Dolby Digital
Codec ID : A_AC3
Duration : 2 h 10 min
Bit rate mode : Constant
Bit rate : 384 kb/s
Channel(s) : 6 channels
Channel layout : L R C LFE Ls Rs
Sampling rate : 48.0 kHz
Frame rate : 31.250 FPS (1536 SPF)
Bit depth : 16 bits
Compression mode : Lossy
Stream size : 358 MiB (9%)
Title : DD 5.1 English
Language : English
Service kind : Complete Main
Default : No
Forced : No

Text #1
ID : 4
Format : PGS
Muxing mode : zlib
Codec ID : S_HDMV/PGS
Codec ID/Info : Picture based subtitle format used on BDs/HD-DVDs
Duration : 2 h 2 min
Bit rate : 23.1 kb/s
Count of elements : 2948
Stream size : 20.2 MiB (0%)
Title : Hindi BD-PGS
Language : Hindi
Default : Yes
Forced : Yes

Text #2
ID : 5
Format : PGS
Muxing mode : zlib
Codec ID : S_HDMV/PGS
Codec ID/Info : Picture based subtitle format used on BDs/HD-DVDs
Duration : 2 h 2 min
Bit rate : 29.6 kb/s
Count of elements : 2838
Stream size : 26.0 MiB (1%)
Title : Eng BD-PGS
Language : English
Default : No
Forced : No

Text #3
ID : 6
Format : PGS
Muxing mode : zlib
Codec ID : S_HDMV/PGS
Codec ID/Info : Picture based subtitle format used on BDs/HD-DVDs
Duration : 2 h 10 min
Bit rate : 27.8 kb/s
Count of elements : 3524
Stream size : 25.8 MiB (1%)
Title : Eng BD-PGS-SDH
Language : English
Default : No
Forced : No

Text #4
ID : 7
Format : PGS
Muxing mode : zlib
Codec ID : S_HDMV/PGS
Codec ID/Info : Picture based subtitle format used on BDs/HD-DVDs
Duration : 2 h 2 min
Bit rate : 5 252 b/s
Count of elements : 656
Stream size : 4.61 MiB (0%)
Title : Eng BD-PGS {Forced}
Language : English
Default : No
Forced : No

Text #5
ID : 8
Format : PGS
Muxing mode : zlib
Codec ID : S_HDMV/PGS
Codec ID/Info : Picture based subtitle format used on BDs/HD-DVDs
Duration : 2 h 2 min
Bit rate : 1 400 b/s
Count of elements : 178
Stream size : 1.22 MiB (0%)
Title : Tamil BD-PGS {Forced}
Language : Tamil
Default : No
Forced : No

Text #6
ID : 9
Format : PGS
Muxing mode : zlib
Codec ID : S_HDMV/PGS
Codec ID/Info : Picture based subtitle format used on BDs/HD-DVDs
Duration : 2 h 2 min
Bit rate : 1 045 b/s
Count of elements : 179
Stream size : 935 KiB (0%)
Title : Telugu BD-PGS {Forced}
Language : Telugu
Default : No
Forced : No

Menu
00:00:00.000 : en:00:00:00.000
00:08:45.775 : en:00:08:45.775
00:18:00.705 : en:00:18:00.705
00:24:13.243 : en:00:24:13.243
00:31:19.878 : en:00:31:19.878
00:39:54.267 : en:00:39:54.267
00:45:38.819 : en:00:45:38.819
00:49:45.607 : en:00:49:45.607
00:58:12.280 : en:00:58:12.280
01:05:40.186 : en:01:05:40.186
01:15:06.960 : en:01:15:06.960
01:21:05.110 : en:01:21:05.110
01:27:23.112 : en:01:27:23.112
01:37:45.776 : en:01:37:45.776
01:43:17.649 : en:01:43:17.649
01:51:29.682 : en:01:51:29.682




Code:

Source: Total Recall 2012 2in1 Theatrical and Extended Director's Cut 1080p Blu-ray AVC TrueHD 5.1-HDS





#McuDudeS -> To avoid fakes, ALWAYS check that the torrent was added on ExtraTorrent.ag by McuDudeS

https://extratorrent.ag/



Download Total Recall (2012) Extended DC 1080p 10bit Bluray x265 HEVC [Org BD 5.1 Hindi + DD 5.1 English] MSubs ~ TombDoc torrent


Comments (please add your comment)
1
posted by emmasexxx (2019-01-21 22:41:26)
emmasexxx avatar Tired of regular P0RN? Come to us >> relaxx.pro





Home - Browse Torrents - Upload Torrent - Stat - Forum - FAQ - Login
ExtraTorrent.ag is in compliance with copyrights
2006-2018 ExtraTorrent.ag