ExtraTorrent.ag - The Largest Bittorent System Login   |    Register
Latest Articles
Most searched
Hot torrents
Movie Torrents
View Torrent Info: Angel Has Fallen (2019) [720p] [YTS] [YIFY]
View Torrent Info: Primal (2019) [720p] [YTS] [YIFY]
View Torrent Info: Danger Close (2019) [720p] [YTS] [YIFY]
View Torrent Info: Cosmos (2019) [720p] [YTS] [YIFY]
View Torrent Info: Don't Let Go (2019) [720p] [YTS] [YIFY]
View Torrent Info: Acceleration (2019) [720p] [YTS] [YIFY]
View Torrent Info: Let It Snow (2019) [720p] [YTS] [YIFY]
View Torrent Info: The Cleansing Hour (2019) [720p] [YTS] [YIFY]
View Torrent Info: Massacre in Dinosaur Valley (1985) [720p] [YTS] [YIFY]
View Torrent Info: Wake Up (2019) [720p] [YTS] [YIFY]
Hot torrents
TV Torrents
View Torrent Info: The.Mandalorian.S01E01.WEB.x264-PHOENiX[eztv]
View Torrent Info: The.Good.Doctor.S03E07.HDTV.x264-KILLERS[eztv]
View Torrent Info: SEAL.Team.S03E06.HDTV.x264-SVA[eztv]
View Torrent Info: Supergirl.S05E06.HDTV.x264-KILLERS[eztv]
View Torrent Info: The.Rookie.S02E07.HDTV.x264-SVA[eztv]
View Torrent Info: Batwoman.S01E06.HDTV.x264-KILLERS[eztv]
View Torrent Info: Chicago.Fire.S08E07.HDTV.x264-SVA[eztv]
View Torrent Info: The.Blacklist.S07E06.HDTV.x264-SVA[eztv]
View Torrent Info: S.W.A.T.2017.S03E06.HDTV.x264-KILLERS[eztv]
View Torrent Info: Modern.Family.S11E06.HDTV.x264-SVA[eztv]
ExtraTorrent.ag > Categories > Movies torrents > Bollywood/Desi torrents


Browse Movies torrents

Manmarziyaan 2018 x264 720p HD Hindi GOPISAHI torrent


Download torrent: Download Manmarziyaan 2018 x264 720p HD Hindi GOPISAHI torrent Magnet link Bookmark Torrent: Manmarziyaan 2018 x264 720p HD Hindi GOPISAHI Manmarziyaan 2018 x264 720p HD Hindi GOPISAHI torrent | if not working, try instead: Magnet Link
Info hash: B6D44D9AE3CE0C702621B56F1753FC41B31EC944
Category: Categories > Movies torrents > Bollywood/Desi torrents
Trackers:
17    View all torrent trackers >
Health:
 seeds: 0 ,  leechers: 0 |  Update >
Total Size: 884.10 MB
Torrent status: Added by trusted uploader Added by trusted uploader Trusted Uploader Site Friend Superman Sun
Uploader: Trusted Uploader Site Friend Superman Sun
Torrent added: 2018-12-14 10:04:57
 

Download Manmarziyaan 2018 x264 720p HD Hindi GOPISAHI torrent if not working, try downloading torrent using Download Manmarziyaan 2018 x264 720p HD Hindi GOPISAHI via Magnet Link




Torrent Description

https://www.gopisahi.pw

Format : Matroska
Format version : Version 4 / Version 2
File size : 884 MiB
Duration : 2 h 35 min
Overall bit rate : 797 kb/s
Movie name : Manmarziyaan 2018 GOPISAHI

Video
Format : AVC
Format/Info : Advanced Video Codec
Codec ID : V_MPEG4/ISO/AVC
Duration : 2 h 35 min
Bit rate : 699 kb/s
Width : 1 280 pixels
Height : 544 pixels
Display aspect ratio : 2.35:1
Frame rate mode : Constant
Frame rate : 24.000 FPS
Color space : YUV
Chroma subsampling : 4:2:0
Bit depth : 8 bits
Scan type : Progressive
Bits/(Pixel*Frame) : 0.042
Stream size : 775 MiB (88%)
Title : GOPISAHI
Writing library : x264 core 155 r2901 7d0ff22

Audio
Format : AAC
Format/Info : Advanced Audio Codec
Duration : 2 h 35 min
Bit rate : 96.0 kb/s
Channel(s) : 2 channels
Channel positions : Front: L R
Sampling rate : 48.0 kHz
Frame rate : 46.875 FPS (1024 SPF)
Compression mode : Lossy
Delay relative to video : -21 ms
Stream size : 106 MiB (12%)
Title : GOPISAHI
Language : Hindi




#PENDUDESI -> To avoid fakes, ALWAYS check that the torrent was added on ExtraTorrent.ag by PENDUDESI

https://extratorrent.ag/



Download Manmarziyaan 2018 x264 720p HD Hindi GOPISAHI torrent


Comments (please add your comment)
No comments



Home - Browse Torrents - Upload Torrent - Stat - Forum - FAQ - Login
ExtraTorrent.ag is in compliance with copyrights
2006-2018 ExtraTorrent.ag