ExtraTorrent.ag - The Largest Bittorent System Login   |    Register
Latest Articles
Most searched
Hot torrents
Movie Torrents
View Torrent Info: Angel Has Fallen (2019) [720p] [YTS] [YIFY]
View Torrent Info: Primal (2019) [720p] [YTS] [YIFY]
View Torrent Info: Danger Close (2019) [720p] [YTS] [YIFY]
View Torrent Info: Cosmos (2019) [720p] [YTS] [YIFY]
View Torrent Info: Don't Let Go (2019) [720p] [YTS] [YIFY]
View Torrent Info: Acceleration (2019) [720p] [YTS] [YIFY]
View Torrent Info: Let It Snow (2019) [720p] [YTS] [YIFY]
View Torrent Info: The Cleansing Hour (2019) [720p] [YTS] [YIFY]
View Torrent Info: Massacre in Dinosaur Valley (1985) [720p] [YTS] [YIFY]
View Torrent Info: Wake Up (2019) [720p] [YTS] [YIFY]
Hot torrents
TV Torrents
View Torrent Info: The.Mandalorian.S01E01.WEB.x264-PHOENiX[eztv]
View Torrent Info: The.Good.Doctor.S03E07.HDTV.x264-KILLERS[eztv]
View Torrent Info: SEAL.Team.S03E06.HDTV.x264-SVA[eztv]
View Torrent Info: Supergirl.S05E06.HDTV.x264-KILLERS[eztv]
View Torrent Info: The.Rookie.S02E07.HDTV.x264-SVA[eztv]
View Torrent Info: Batwoman.S01E06.HDTV.x264-KILLERS[eztv]
View Torrent Info: Chicago.Fire.S08E07.HDTV.x264-SVA[eztv]
View Torrent Info: The.Blacklist.S07E06.HDTV.x264-SVA[eztv]
View Torrent Info: S.W.A.T.2017.S03E06.HDTV.x264-KILLERS[eztv]
View Torrent Info: Modern.Family.S11E06.HDTV.x264-SVA[eztv]
ExtraTorrent.ag > Categories > Movies torrents > Dubbed /Dual Audio torrents


Browse Movies torrents

Mission.Impossible.Fallout.2018.1080p.Bluray.Dual.Audio.Hindi.BD.5.1.English.6CH.x264.MAVI torrent


Download torrent: Download Mission.Impossible.Fallout.2018.1080p.Bluray.Dual.Audio.Hindi.BD.5.1.English.6CH.x264.MAVI torrent Magnet link Bookmark Torrent: Mission.Impossible.Fallout.2018.1080p.Bluray.Dual.Audio.Hindi.BD.5.1.English.6CH.x264.MAVI Mission.Impossible.Fallout.2018.1080p.Bluray.Dual.Audio.Hindi.BD.5.1.English.6CH.x264.MAVI torrent | if not working, try instead: Magnet Link
Info hash: C5DB39D981CF00FD82C2C088B9DB74CD89CD48E6
Category: Categories > Movies torrents > Dubbed /Dual Audio torrents
Trackers:
6    View all torrent trackers >
Health:
 seeds: 27 ,  leechers: 14 |  Update >
Total Size: 6.60 GB
Torrent status: Added by trusted uploader Added by trusted uploader Trusted Uploader Site Friend Superman Sun
Uploader: Trusted Uploader Site Friend Superman Sun
Torrent added: 2018-11-29 17:59:21
 

Download Mission.Impossible.Fallout.2018.1080p.Bluray.Dual.Audio.Hindi.BD.5.1.English.6CH.x264.MAVI torrent if not working, try downloading torrent using Download Mission.Impossible.Fallout.2018.1080p.Bluray.Dual.Audio.Hindi.BD.5.1.English.6CH.x264.MAVI via Magnet Link




Torrent Description


Movie Encoded From Full Bluray Disk
&
Only For Quality Lovers


Org Untouched Bluray DD 5.1 640kbps Hindi Audio (Thanks Hammer)


Mission.Impossible.Fallout.2018.1080p.Bluray.Dual.Audio.Hindi.BD.5.1.English.6CH.x264.MAVI

Video
ID : 1
Format : AVC
Format/Info : Advanced Video Codec
Format profile : [email protected]
Format settings : CABAC / 5 Ref Frames
Format settings, CABAC : Yes
Format settings, RefFrames : 5 frames
Codec ID : V_MPEG4/ISO/AVC
Duration : 2 h 27 min
Bit rate : 5 000 kb/s
Width : 1 920 pixels
Height : 804 pixels
Display aspect ratio : 2.40:1
Frame rate mode : Constant
Frame rate : 23.976 (24000/1001) FPS
Color space : YUV
Chroma subsampling : 4:2:0
Bit depth : 8 bits
Scan type : Progressive
Bits/(Pixel*Frame) : 0.135
Stream size : 5.15 GiB (79%)
Writing library : x264 core 155 r2901 7d0ff22
Language : English
Default : Yes
Forced : No
Color range : Limited
Color primaries : Generic film
Transfer characteristics : BT.709
Matrix coefficients : BT.709

Audio #1
ID : 2
Format : AC-3
Format/Info : Audio Coding 3
Codec ID : A_AC3
Duration : 2 h 27 min
Bit rate mode : Constant
Bit rate : 640 kb/s
Channel(s) : 6 channels
Channel positions : Front: L C R, Side: L R, LFE
Sampling rate : 48.0 kHz
Frame rate : 31.250 FPS (1536 SPF)
Bit depth : 16 bits
Compression mode : Lossy
Stream size : 675 MiB (10%)
Language : Hindi
Service kind : Complete Main
Default : No
Forced : No

Audio #2
ID : 3
Format : AC-3
Format/Info : Audio Coding 3
Codec ID : A_AC3
Duration : 2 h 27 min
Bit rate mode : Constant
Bit rate : 640 kb/s
Channel(s) : 6 channels
Channel positions : Front: L C R, Side: L R, LFE
Sampling rate : 48.0 kHz
Frame rate : 31.250 FPS (1536 SPF)
Bit depth : 16 bits
Compression mode : Lossy
Stream size : 675 MiB (10%)
Language : English
Service kind : Complete Main
Default : Yes
Forced : No

Text #1
ID : 4
Format : PGS
Codec ID : S_HDMV/PGS
Codec ID/Info : Picture based subtitle format used on BDs/HD-DVDs
Duration : 2 h 26 min
Bit rate : 24.4 kb/s
Count of elements : 3163
Stream size : 25.6 MiB (0%)
Language : Hindi
Default : No
Forced : No

Text #2
ID : 5
Format : PGS
Codec ID : S_HDMV/PGS
Codec ID/Info : Picture based subtitle format used on BDs/HD-DVDs
Duration : 2 h 19 min
Bit rate : 29.7 kb/s
Count of elements : 3111
Stream size : 29.5 MiB (0%)
Language : English
Default : Yes
Forced : No

Text #3
ID : 6
Format : PGS
Codec ID : S_HDMV/PGS
Codec ID/Info : Picture based subtitle format used on BDs/HD-DVDs
Duration : 2 h 19 min
Bit rate : 35.2 kb/s
Count of elements : 3747
Stream size : 35.1 MiB (1%)
Title : SDH
Language : English
Default : No
Forced : No
Bi



[/img][/url]




#sujit2324 -> To avoid fakes, ALWAYS check that the torrent was added on ExtraTorrent.ag by sujit2324

https://extratorrent.ag/



Download Mission.Impossible.Fallout.2018.1080p.Bluray.Dual.Audio.Hindi.BD.5.1.English.6CH.x264.MAVI torrent


Comments (please add your comment)
No comments



Home - Browse Torrents - Upload Torrent - Stat - Forum - FAQ - Login
ExtraTorrent.ag is in compliance with copyrights
2006-2018 ExtraTorrent.ag