ExtraTorrent.ag - The Largest Bittorent System Login   |    Register
Latest Articles
Most searched
Hot torrents
Movie Torrents
View Torrent Info: The Drone (2019) [720p] [YTS] [YIFY]
View Torrent Info: The Game Changers (2018) [720p] [YTS] [YIFY]
View Torrent Info: Among Thieves (2019) [720p] [YTS] [YIFY]
View Torrent Info: 100 Acres of Hell (2019) [720p] [YTS] [YIFY]
View Torrent Info: Pig Hag (2019) [720p] [YTS] [YIFY]
View Torrent Info: Intimacy (2001) [720p] [YTS] [YIFY]
View Torrent Info: Robbery (2018) [720p] [YTS] [YIFY]
View Torrent Info: Hitsville: The Making of Motown (2019) [720p] [YTS] [YIFY]
View Torrent Info: Princess Emmy (2019) [720p] [YTS] [YIFY]
View Torrent Info: Halloween at Aunt Ethel's (2019) [720p] [YTS] [YIFY]
Hot torrents
TV Torrents
View Torrent Info: Arrow.S08E01.HDTV.x264-SVA[eztv]
View Torrent Info: The.Flash.2014.S06E02.HDTV.x264-SVA[eztv]
View Torrent Info: The.Blacklist.S07E02.HDTV.x264-SVA[eztv]
View Torrent Info: Supergirl.S05E02.HDTV.x264-KILLERS[eztv]
View Torrent Info: Batwoman.S01E02.HDTV.x264-SVA[eztv]
View Torrent Info: The.War.Of.The.Worlds.2019.S01E01.HDTV.x264-FiHTV[eztv]
View Torrent Info: FBI.S02E04.HDTV.x264-SVA[eztv]
View Torrent Info: The.Good.Doctor.S03E04.HDTV.x264-SVA[eztv]
View Torrent Info: Greys.Anatomy.S16E04.HDTV.x264-SVA[eztv]
View Torrent Info: Chicago.Med.S05E04.HDTV.x264-SVA[eztv]
ExtraTorrent.ag > Categories > Movies torrents > HD torrents


Browse Movies torrents

Aladdin and the King of Thieves - Aladdin e il Re dei Ladri (1996).720p.H264.italian.english.Ac3-MIRCrew torrent


Download torrent: Download Aladdin and the King of Thieves - Aladdin e il Re dei Ladri (1996).720p.H264.italian.english.Ac3-MIRCrew torrent Magnet link Bookmark Torrent: Aladdin and the King of Thieves - Aladdin e il Re dei Ladri (1996).720p.H264.italian.english.Ac3-MIRCrew Aladdin and the King of Thieves - Aladdin e il Re dei Ladri (1996).720p.H264.italian.english.Ac3-MIRCrew torrent | if not working, try instead: Magnet Link
Info hash: 27F7F6C9D610C0C8395B894EC6F2687795B9E1C7
Category: Categories > Movies torrents > HD torrents
Trackers:
15    View all torrent trackers >
Health:
 seeds: 0 ,  leechers: 0 |  Update >
Torrent language:  
Total Size: 1.20 GB
Torrent status: Added by trusted uploader Added by trusted uploader Trusted Uploader Site Friend Superman Sun
Uploader: Trusted Uploader Site Friend Superman Sun
Torrent added: 2018-11-17 16:07:16
 

Download Aladdin and the King of Thieves - Aladdin e il Re dei Ladri (1996).720p.H264.italian.english.Ac3-MIRCrew torrent if not working, try downloading torrent using Download Aladdin and the King of Thieves - Aladdin e il Re dei Ladri (1996).720p.H264.italian.english.Ac3-MIRCrew via Magnet Link




Torrent Description

Aladdin and the King of Thieves - Aladdin e il Re dei Ladri (1996).720p.H264.italian.english.Ac3-MIRCrew


NO FOUND ONLY ORIGINAL RELEASE


My release is always in double track audio italian and Original audio
for select it use VLC or dvd player home
not use wmp

Aladdin e il Re dei Ladri - Aladdin and the King of Thieves (1996)

Quality MIRCrew on HD 720p da 1,2 gb








Titolo originale Aladdin and the King of Thieves
Lingua originale inglese
Paese di produzione Stati Uniti d'America
Anno 1996
Durata 78 min
Genere animazione
Regia Tad Stones
Soggetto Mark McCorkle, Robert Schooley
Sceneggiatura Mark McCorkle, Robert Schooley



Sylvester Stallone: Ray Quick
Sharon Stone: May Munro
James Woods: Ned Trent
Rod Steiger: Joe Leon
Eric Roberts: Thomas Leon
Mario Ernesto Sánchez: Charlie
Sergio Doré Jr.: Strongarm
Chase Randolph: padre di May
Jeana Bell: madre di May
Brittany Paige Bouck: May da bambina



Durante la cerimonia delle loro nozze, Aladdin e la principessa Jasmine scoprono di essere il bersaglio di un raid da parte dei famosi Quaranta Ladroni, guidati da un misterioso uomo chiamato Cassim. Sebbene Aladdin, Jasmine e il resto della loro gang riescano a fermare con successo l'attacco e ad allontanare i ladri, non riescono a evitare che il matrimonio sia rovinato.



The King of Thieves disrupts Aladdin and Jasmine's long-anticipated wedding, looking for an oracle that will lead him to an even bigger treasure. His true identity causes trouble for Aladdin








General
Unique ID : 43908730680662245877172770638858000449 (0x2108839082781DC8C6C69F36A3739841)
Complete name : Aladdin e il Re dei Ladri (1996).720p.ita.eng-MIRCrew\Aladdin e il Re dei Ladri (1996).720p.ita.eng-MIRCrew.mkv
Format : Matroska
Format version : Version 2
File size : 1.21 GiB
Duration : 1h 21mn
Overall bit rate : 2 119 Kbps
Movie name : MIRCrew
Encoded date : UTC 2018-10-05 19:59:08
Writing application : Lavf54.63.100
Writing library : Lavf54.63.100

Video
ID : 1
Format : AVC
Format/Info : Advanced Video Codec
Format profile : [email protected]
Format settings, CABAC : Yes
Format settings, ReFrames : 2 frames
Codec ID : V_MPEG4/ISO/AVC
Duration : 1h 21mn
Bit rate : 1 750 Kbps
Width : 1 280 pixels
Height : 720 pixels
Display aspect ratio : 16:9
Frame rate mode : Variable
Frame rate : 23.976 fps
Color space : YUV
Chroma subsampling : 4:2:0
Bit depth : 8 bits
Scan type : Progressive
Bits/(Pixel*Frame) : 0.079
Stream size : 989 MiB (80%)
Writing library : x264 core 130 r2273
Encoding settings : cabac=1 / ref=2 / deblock=1:0:0 / analyse=0x1:0x131 / me=hex / subme=7 / psy=1 / psy_rd=1.00:0.00 / mixed_ref=0 / me_range=16 / chroma_me=1 / trellis=1 / 8x8dct=0 / cqm=0 / deadzone=21,11 / fast_pskip=1 / chroma_qp_offset=-2 / threads=6 / lookahead_threads=1 / sliced_threads=0 / nr=0 / decimate=1 / interlaced=0 / bluray_compat=0 / constrained_intra=0 / bframes=3 / b_pyramid=0 / b_adapt=1 / b_bias=0 / direct=3 / weightb=1 / open_gop=0 / weightp=2 / keyint=230 / keyint_min=23 / scenecut=40 / intra_refresh=0 / rc_lookahead=40 / rc=abr / mbtree=1 / bitrate=1750 / ratetol=1.0 / qcomp=0.60 / qpmin=10 / qpmax=69 / qpstep=4 / vbv_maxrate=24000 / vbv_bufsize=24000 / nal_hrd=none / ip_ratio=1.40 / aq=1:1.00
Language : Italian
Default : Yes
Forced : No
DURATION : 01:21:41.947000000
NUMBER_OF_FRAMES : 117529
NUMBER_OF_BYTES : 3747623733
_STATISTICS_WRITING_APP : mkvmerge v8.8.0 ('Wind at my back') 64bit
_STATISTICS_WRITING_DATE_UTC : 2016-02-14 10:18:08
_STATISTICS_TAGS : BPS DURATION NUMBER_OF_FRAMES NUMBER_OF_BYTES

Audio #1
ID : 2
Format : AC-3
Format/Info : Audio Coding 3
Mode extension : CM (complete main)
Codec ID : A_AC3
Duration : 1h 21mn
Bit rate mode : Constant
Bit rate : 192 Kbps
Channel(s) : 2 channels
Channel positions : Front: L R
Sampling rate : 48.0 KHz
Bit depth : 16 bits
Compression mode : Lossy
Delay relative to video : 1mn 5s
Stream size : 112 MiB (9%)
Title : AC3
Language : Italian
Default : Yes
Forced : No
DURATION : 01:21:41.920000000
NUMBER_OF_FRAMES : 153185
NUMBER_OF_BYTES : 117646080
_STATISTICS_WRITING_APP : mkvmerge v8.8.0 ('Wind at my back') 64bit
_STATISTICS_WRITING_DATE_UTC : 2016-02-14 10:18:08
_STATISTICS_TAGS : BPS DURATION NUMBER_OF_FRAMES NUMBER_OF_BYTES

Audio #2
ID : 3
Format : AC-3
Format/Info : Audio Coding 3
Mode extension : CM (complete main)
Codec ID : A_AC3
Duration : 1h 21mn
Bit rate mode : Constant
Bit rate : 192 Kbps
Channel(s) : 2 channels
Channel positions : Front: L R
Sampling rate : 48.0 KHz
Bit depth : 16 bits
Compression mode : Lossy
Delay relative to video : 1mn 5s
Stream size : 112 MiB (9%)
Title : AC3
Language : English
Default : No
Forced : No
DURATION : 01:21:41.920000000
NUMBER_OF_FRAMES : 153185
NUMBER_OF_BYTES : 235292160
_STATISTICS_WRITING_APP : mkvmerge v8.8.0 ('Wind at my back') 64bit
_STATISTICS_WRITING_DATE_UTC : 2016-02-14 10:18:08
_STATISTICS_TAGS : BPS DURATION NUMBER_OF_FRAMES NUMBER_OF_BYTES





#robbyrs -> To avoid fakes, ALWAYS check that the torrent was added on ExtraTorrent.ag by robbyrs

https://extratorrent.ag/



Download Aladdin and the King of Thieves - Aladdin e il Re dei Ladri (1996).720p.H264.italian.english.Ac3-MIRCrew torrent


Comments (please add your comment)
No comments



Home - Browse Torrents - Upload Torrent - Stat - Forum - FAQ - Login
ExtraTorrent.ag is in compliance with copyrights
2006-2018 ExtraTorrent.ag