ExtraTorrent.ag - The Largest Bittorent System Login   |    Register
Latest Articles
Most searched
Hot torrents
Movie Torrents
View Torrent Info: The Drone (2019) [720p] [YTS] [YIFY]
View Torrent Info: The Game Changers (2018) [720p] [YTS] [YIFY]
View Torrent Info: Among Thieves (2019) [720p] [YTS] [YIFY]
View Torrent Info: 100 Acres of Hell (2019) [720p] [YTS] [YIFY]
View Torrent Info: Pig Hag (2019) [720p] [YTS] [YIFY]
View Torrent Info: Intimacy (2001) [720p] [YTS] [YIFY]
View Torrent Info: Robbery (2018) [720p] [YTS] [YIFY]
View Torrent Info: Hitsville: The Making of Motown (2019) [720p] [YTS] [YIFY]
View Torrent Info: Princess Emmy (2019) [720p] [YTS] [YIFY]
View Torrent Info: Halloween at Aunt Ethel's (2019) [720p] [YTS] [YIFY]
Hot torrents
TV Torrents
View Torrent Info: Arrow.S08E01.HDTV.x264-SVA[eztv]
View Torrent Info: The.Flash.2014.S06E02.HDTV.x264-SVA[eztv]
View Torrent Info: The.Blacklist.S07E02.HDTV.x264-SVA[eztv]
View Torrent Info: Supergirl.S05E02.HDTV.x264-KILLERS[eztv]
View Torrent Info: Batwoman.S01E02.HDTV.x264-SVA[eztv]
View Torrent Info: The.War.Of.The.Worlds.2019.S01E01.HDTV.x264-FiHTV[eztv]
View Torrent Info: FBI.S02E04.HDTV.x264-SVA[eztv]
View Torrent Info: The.Good.Doctor.S03E04.HDTV.x264-SVA[eztv]
View Torrent Info: Greys.Anatomy.S16E04.HDTV.x264-SVA[eztv]
View Torrent Info: Chicago.Med.S05E04.HDTV.x264-SVA[eztv]
ExtraTorrent.ag > Categories > Movies torrents > Bollywood/Desi torrents


Browse Movies torrents

Manmarziyaan (2018) Hindi 720p Pre DVDRip [Audio Cleand] x264 AAC 1.1GB [1337xHD] torrent


Download torrent: Download Manmarziyaan (2018) Hindi 720p Pre DVDRip [Audio Cleand] x264 AAC 1.1GB [1337xHD] torrent Magnet link Bookmark Torrent: Manmarziyaan (2018) Hindi 720p Pre DVDRip [Audio Cleand] x264 AAC 1.1GB [1337xHD] Manmarziyaan (2018) Hindi 720p Pre DVDRip [Audio Cleand] x264 AAC 1.1GB [1337xHD] torrent | if not working, try instead: Magnet Link
Info hash: 991EC40A0357FF4110054FC8B22A5C5269E9D6F1
Category: Categories > Movies torrents > Bollywood/Desi torrents
Trackers:
0    View all torrent trackers >
Health:
 seeds: 0 ,  leechers: 0 |  Update >
Total Size: 1.10 GB
Torrent status: Added by trusted uploader Added by trusted uploader Trusted Uploader Site Friend Superman Sun
Uploader: Trusted Uploader Site Friend Superman Sun
Torrent added: 2018-09-15 06:19:18
 

Download Manmarziyaan (2018) Hindi 720p Pre DVDRip [Audio Cleand] x264 AAC 1.1GB [1337xHD] torrent if not working, try downloading torrent using Download Manmarziyaan (2018) Hindi 720p Pre DVDRip [Audio Cleand] x264 AAC 1.1GB [1337xHD] via Magnet Link




Torrent Description

https://1337xhd.com/



https://hdfilmboss.net/

General
Format : Matroska
Format version : Version 4 / Version 2
File size : 1.05 GiB
Duration : 2 h 28 min
Overall bit rate : 1 017 kb/s
Movie name : 1337xHD.Com
Encoded date : UTC 2018-09-15 03:55:40
Writing application : mkvmerge v25.0.0 ('Prog Noir') 32-bit
Writing library : libebml v1.3.6 + libmatroska v1.4.9

Video
ID : 1
Format : AVC
Format/Info : Advanced Video Codec
Format profile : [email protected]
Format settings : CABAC / 4 Ref Frames
Format settings, CABAC : Yes
Format settings, RefFrames : 4 frames
Codec ID : V_MPEG4/ISO/AVC
Duration : 2 h 28 min
Bit rate : 890 kb/s
Width : 720 pixels
Height : 288 pixels
Display aspect ratio : 2.35:1
Frame rate mode : Constant
Frame rate : 25.000 FPS
Color space : YUV
Chroma subsampling : 4:2:0
Bit depth : 8 bits
Scan type : Progressive
Bits/(Pixel*Frame) : 0.172
Stream size : 940 MiB (87%)
Title : 1337xHD.Com
Writing library : x264 core 148 r2643 5c65704
Default : Yes
Forced : No

Audio
ID : 2
Format : AAC
Format/Info : Advanced Audio Codec
Format profile : LC
Codec ID : A_AAC-2
Duration : 2 h 28 min
Bit rate : 128 kb/s
Channel(s) : 2 channels
Channel positions : Front: L R
Sampling rate : 44.1 kHz
Frame rate : 43.066 FPS (1024 SPF)
Compression mode : Lossy
Delay relative to video : -46 ms
Stream size : 136 MiB (13%)
Title : 1337xHD.Com
Language : Hindi
Default : Yes
Forced : No



https://hdfilmboss.net/

https://1337xhd.com/




#HDFilmBoss -> To avoid fakes, ALWAYS check that the torrent was added on ExtraTorrent.ag by HDFilmBoss

https://extratorrent.ag/



Download Manmarziyaan (2018) Hindi 720p Pre DVDRip [Audio Cleand] x264 AAC 1.1GB [1337xHD] torrent


Comments (please add your comment)
No comments



Home - Browse Torrents - Upload Torrent - Stat - Forum - FAQ - Login
ExtraTorrent.ag is in compliance with copyrights
2006-2018 ExtraTorrent.ag