ExtraTorrent.ag - The Largest Bittorent System Login   |    Register
Latest Articles
Most searched
Hot torrents
Movie Torrents
View Torrent Info: The Spy Who Dumped Me (2018) [720p] [YTS] [YIFY]
View Torrent Info: Slender Man (2018) [720p] [YTS] [YIFY]
View Torrent Info: Blindspotting (2018) [720p] [YTS] [YIFY]
View Torrent Info: Apostle (2018) [720p] [YTS] [YIFY]
View Torrent Info: Sanju (2018) [720p] [YTS] [YIFY]
View Torrent Info: Look Away (2018) [720p] [YTS] [YIFY]
View Torrent Info: I Still See You (2018) [720p] [YTS] [YIFY]
View Torrent Info: LEGO DC Comics Super Heroes: Aquaman - Rage of Atlantis (2018) [720p] [YTS] [YIFY]
View Torrent Info: Seven in Heaven (2018) [720p] [YTS] [YIFY]
View Torrent Info: The Wife (2017) [720p] [YTS] [YIFY]
Hot torrents
TV Torrents
View Torrent Info: Arrow.S07E01.HDTV.x264-SVA[eztv]
View Torrent Info: The.Flash.2014.S05E02.HDTV.x264-SVA[eztv]
View Torrent Info: Manifest.S01E04.HDTV.x264-KILLERS[eztv]
View Torrent Info: Supergirl.S04E01.HDTV.x264-SVA[eztv]
View Torrent Info: FBI.S01E04.HDTV.x264-SVA[eztv]
View Torrent Info: Blindspot.S04E01.HDTV.x264-KILLERS[eztv]
View Torrent Info: The.Big.Bang.Theory.S12E04.HDTV.x264-SVA[eztv]
View Torrent Info: The.Rookie.S01E01.HDTV.x264-SVA[eztv]
View Torrent Info: Magnum.P.I.2018.S01E04.HDTV.x264-SVA[eztv]
View Torrent Info: the.resident.s02e04.web.x264-tbs[eztv]
ExtraTorrent.ag > Categories > Movies torrents > Dubbed /Dual Audio torrents


Browse Movies torrents

The Bourne Complete Collection (2002 - 2016) 1080p BluRay x264 Dual Audio [Hindi - English] DD5.1 - Esub ~ Ranvijay torrent


Download torrent: Download The Bourne Complete Collection (2002 - 2016) 1080p BluRay x264 Dual Audio [Hindi - English] DD5.1 - Esub ~ Ranvijay torrent Magnet link Bookmark Torrent: The Bourne Complete Collection (2002 - 2016) 1080p BluRay x264 Dual Audio [Hindi - English] DD5.1 - Esub ~ Ranvijay The Bourne Complete Collection (2002 - 2016) 1080p BluRay x264 Dual Audio [Hindi - English] DD5.1 - Esub ~ Ranvijay torrent | if not working, try instead: Magnet Link
Info hash: AF98DF31D1166C2AA037B04A8CBA37ED3063B85F
Category: Categories > Movies torrents > Dubbed /Dual Audio torrents
Trackers:
36    View all torrent trackers >
Health:
 seeds: 30 ,  leechers: 16 |  Update >
Total Size: 25.60 GB
Torrent status: Added by trusted uploader Added by trusted uploader Trusted Uploader Site Friend Superman Sun
Uploader: Trusted Uploader Site Friend Superman Sun
Torrent added: 2018-08-09 15:15:41
 

Download The Bourne Complete Collection (2002 - 2016) 1080p BluRay x264 Dual Audio [Hindi - English] DD5.1 - Esub ~ Ranvijay torrent if not working, try downloading torrent using Download The Bourne Complete Collection (2002 - 2016) 1080p BluRay x264 Dual Audio [Hindi - English] DD5.1 - Esub ~ Ranvijay via Magnet Link




Torrent Description







The Bourne Complete Collection (2002 - 2016) 1080p BluRay x264 Dual Audio [Hindi - English] DD5.1 - Esub ~ Ranvijay

Thanks To The Punisher, Hammer And Snowdon For Hindi Audios

Buy RDP Online



The Bourne Identity (2002) 1080p BluRay x264 Dual Audio [ Hindi DD5.1 - English DD5.1] - Esub ~ Ranvijay

Format : Matroska
Format version : Version 4 / Version 2
File size : 5.05 GiB
Duration : 1 h 58 min
Overall bit rate : 6 097 kb/s
Movie name : The Bourne Identity (2002) 1080p BluRay x264 Dual Audio [ Hindi DD5.1 - English DD5.1] - Esub ~ Ranvijay

Video
ID : 1
Format : AVC
Duration : 1 h 58 min
Bit rate : 5 000 kb/s
Width : 1 920 pixels
Height : 816 pixels
Display aspect ratio : 2.35:1
Frame rate mode : Constant
Frame rate : 23.976 (24000/1001) FPS
Stream size : 4.14 GiB (82%)
Title : ~Ranvijay~

Audio #1
ID : 2
Format : AC-3
Bit rate mode : Constant
Bit rate : 640 kb/s
Channel(s) : 6 channels
Channel positions : Front: L C R, Side: L R, LFE
Language : Hindi


Audio #2
ID : 3
Format : AC-3
Bit rate mode : Constant
Bit rate : 448 kb/s
Channel(s) : 6 channels
Channel positions : Front: L C R, Side: L R, LFE
Title : ~Ranvijay~
Language : English


Text
ID : 4
Format : PGS
Title : ~Ranvijay~
Language : English










The Bourne Supremacy (2004) 1080p BluRay x264 Dual Audio [Hindi DD5.1 - English DD5.1] - Esub ~ Ranvijay

Format : Matroska
Format version : Version 4 / Version 2
File size : 4.62 GiB
Duration : 1 h 48 min
Overall bit rate : 6 096 kb/s
Movie name : The Bourne Supremacy (2004) 1080p BluRay x264 Dual Audio [Hindi DD5.1 - English DD5.1] - Esub ~ Ranvijay

Video
ID : 1
Format : AVC
Format/Info : Advanced Video Codec
Duration : 1 h 48 min
Bit rate : 5 000 kb/s
Width : 1 920 pixels
Height : 816 pixels
Display aspect ratio : 2.35:1
Frame rate mode : Constant
Frame rate : 23.976 (24000/1001) FPS
Stream size : 3.79 GiB (82%)
Title : ~Ranvijay~

Audio #1
ID : 2
Format : AC-3
Bit rate mode : Constant
Bit rate : 640 kb/s
Channel(s) : 6 channels
Channel positions : Front: L C R, Side: L R, LFE
Title : ~Ranvijay~
Language : Hindi

Audio #2
ID : 3
Format : AC-3
Bit rate mode : Constant
Bit rate : 448 kb/s
Channel(s) : 6 channels
Channel positions : Front: L C R, Side: L R, LFE
Title : ~Ranvijay~
Language : English

Text
ID : 4
Format : PGS
Title : ~Ranvijay~










The Bourne Ultimatum (2007) 1080p BluRay x264 Dual Audio [ Hindi DD5.1 - English DD5.1] - Esub ~ Ranvijay

Format : Matroska
Format version : Version 4 / Version 2
File size : 4.91 GiB
Duration : 1 h 55 min
Overall bit rate : 6 091 kb/s
Movie name : The Bourne Ultimatum (2007) 1080p BluRay x264 Dual Audio [ Hindi DD5.1 - English DD5.1] - Esub ~ Ranvijay

Video
ID : 1
Format : AVC
Format/Info : Advanced Video Codec
Duration : 1 h 55 min
Bit rate : 5 000 kb/s
Width : 1 920 pixels
Height : 800 pixels
Display aspect ratio : 2.40:1
Frame rate mode : Constant
Frame rate : 23.976 (24000/1001) FPS
Title : ~Ranvijay~

Audio #1
ID : 2
Format : AC-3
Bit rate mode : Constant
Bit rate : 640 kb/s
Channel(s) : 6 channels
Channel positions : Front: L C R, Side: L R, LFE
Title : ~Ranvijay~
Language : Hindi

Audio #2
ID : 3
Format : AC-3
Bit rate mode : Constant
Bit rate : 448 kb/s
Channel(s) : 6 channels
Channel positions : Front: L C R, Side: L R, LFE
Title : ~Ranvijay~
Language : English


Text
ID : 4
Format : PGS
Title : ~Ranvijay~
Language : English











The Bourne Legacy (2012) 1080p BluRay x264 Dual Audio [Hindi DTS 5.1 - English DD5.1] - Esub ~ Ranvijay

Format : Matroska
Format version : Version 4 / Version 2
File size : 5.87 GiB
Duration : 2 h 15 min
Overall bit rate : 6 225 kb/s
Movie name : The Bourne Legacy (2012) 1080p BluRay x264 Dual Audio [Hindi DTS 5.1 - English DD5.1] - Esub ~ Ranvijay

Video
ID : 1
Format : AVC
Format/Info : Advanced Video Codec
Duration : 2 h 15 min
Bit rate : 5 000 kb/s
Width : 1 920 pixels
Height : 800 pixels
Display aspect ratio : 2.40:1
Frame rate mode : Constant
Frame rate : 23.976 (24000/1001) FPS
Stream size : 4.71 GiB (80%)
Title : ~Ranvijay~

Audio #1
ID : 2
Format : DTS
Bit rate mode : Constant
Bit rate : 768 kb/s
Channel(s) : 6 channels
Channel positions : Front: L C R, Side: L R, LFE
Title : ~Ranvijay~
Language : Hindi

Audio #2
ID : 3
Format : AC-3
Bit rate mode : Constant
Bit rate : 448 kb/s
Channel(s) : 6 channels
Channel positions : Front: L C R, Side: L R, LFE
Title : ~Ranvijay~
Language : English

Text
ID : 4
Format : PGS
Title : ~Ranvijay~
Language : English











Jason Bourne (2016) 1080p BluRay x264 Dual Audio [Hindi DD5.1 - English DD5.1] - Esub ~ Ranvijay

Format : Matroska
Format version : Version 4 / Version 2
File size : 5.03 GiB
Duration : 2 h 3 min
Overall bit rate : 5 841 kb/s
Movie name : Jason Bourne (2016) 1080p BluRay x264 Dual Audio [Hindi DD5.1 - English DD5.1] - Esub ~ Ranvijay

Video
ID : 1
Format : AVC
Duration : 2 h 3 min
Bit rate : 5 000 kb/s
Width : 1 920 pixels
Height : 804 pixels
Display aspect ratio : 2.40:1
Frame rate mode : Constant
Frame rate : 23.976 (24000/1001) FPS
Stream size : 4.30 GiB (86%)
Title : ~Ranvijay~

Audio #1
ID : 2
Format : AC-3
Bit rate mode : Constant
Bit rate : 384 kb/s
Channel(s) : 6 channels
Channel positions : Front: L C R, Side: L R, LFE
Title : ~Ranvijay~
Language : Hindi

Audio #2
ID : 3
Format : AC-3
Bit rate mode : Constant
Bit rate : 448 kb/s
Channel(s) : 6 channels
Channel positions : Front: L C R, Side: L R, LFE
Title : ~Ranvijay~
Language : English

Text
ID : 4
Format : PGS
Title : ~Ranvijay~
Language : English














#TheFighter -> To avoid fakes, ALWAYS check that the torrent was added on ExtraTorrent.ag by TheFighter

https://extratorrent.ag/



Download The Bourne Complete Collection (2002 - 2016) 1080p BluRay x264 Dual Audio [Hindi - English] DD5.1 - Esub ~ Ranvijay torrent


Comments (please add your comment)
No comments



Home - Browse Torrents - Upload Torrent - Stat - Forum - FAQ - Login
ExtraTorrent.ag is in compliance with copyrights
2006-2018 ExtraTorrent.ag