ExtraTorrent.ag - The Largest Bittorent System Login   |    Register
Latest Articles
Most searched
Hot torrents
Movie Torrents
View Torrent Info: The Drone (2019) [720p] [YTS] [YIFY]
View Torrent Info: The Game Changers (2018) [720p] [YTS] [YIFY]
View Torrent Info: Among Thieves (2019) [720p] [YTS] [YIFY]
View Torrent Info: 100 Acres of Hell (2019) [720p] [YTS] [YIFY]
View Torrent Info: Pig Hag (2019) [720p] [YTS] [YIFY]
View Torrent Info: Intimacy (2001) [720p] [YTS] [YIFY]
View Torrent Info: Robbery (2018) [720p] [YTS] [YIFY]
View Torrent Info: Hitsville: The Making of Motown (2019) [720p] [YTS] [YIFY]
View Torrent Info: Princess Emmy (2019) [720p] [YTS] [YIFY]
View Torrent Info: Halloween at Aunt Ethel's (2019) [720p] [YTS] [YIFY]
Hot torrents
TV Torrents
View Torrent Info: Arrow.S08E01.HDTV.x264-SVA[eztv]
View Torrent Info: The.Flash.2014.S06E02.HDTV.x264-SVA[eztv]
View Torrent Info: The.Blacklist.S07E02.HDTV.x264-SVA[eztv]
View Torrent Info: Supergirl.S05E02.HDTV.x264-KILLERS[eztv]
View Torrent Info: Batwoman.S01E02.HDTV.x264-SVA[eztv]
View Torrent Info: The.War.Of.The.Worlds.2019.S01E01.HDTV.x264-FiHTV[eztv]
View Torrent Info: FBI.S02E04.HDTV.x264-SVA[eztv]
View Torrent Info: The.Good.Doctor.S03E04.HDTV.x264-SVA[eztv]
View Torrent Info: Greys.Anatomy.S16E04.HDTV.x264-SVA[eztv]
View Torrent Info: Chicago.Med.S05E04.HDTV.x264-SVA[eztv]
ExtraTorrent.ag > Categories > Movies torrents > h.264/x264 torrents


Browse Movies torrents

Get The Gringo (2012) 720p Hindi Dubbed HDRip x264 AC3 +ESubs by Full4movies torrent


Download torrent: Download Get The Gringo (2012) 720p Hindi Dubbed HDRip x264 AC3 +ESubs by Full4movies torrent Magnet link Bookmark Torrent: Get The Gringo (2012) 720p Hindi Dubbed HDRip x264 AC3 +ESubs by Full4movies Get The Gringo (2012) 720p Hindi Dubbed HDRip x264 AC3 +ESubs by Full4movies torrent | if not working, try instead: Magnet Link
Info hash: 8581BA32131850C06951968C801C4AE6B66DD68D
Category: Categories > Movies torrents > h.264/x264 torrents
Trackers:
15    View all torrent trackers >
Health:
 seeds: 29 ,  leechers: 5 |  Update >
Total Size: 797.10 MB
Torrent status: Added by trusted uploader Added by trusted uploader Trusted Uploader Site Friend Superman Sun
Uploader: Trusted Uploader Site Friend Superman Sun
Torrent added: 2018-05-24 12:05:04
 

Download Get The Gringo (2012) 720p Hindi Dubbed HDRip x264 AC3 +ESubs by Full4movies torrent if not working, try downloading torrent using Download Get The Gringo (2012) 720p Hindi Dubbed HDRip x264 AC3 +ESubs by Full4movies via Magnet Link




Torrent Description



General
Complete name                  : Get The Gringo (2012) 720p Hindi Dubbed HDRip x264 AC3 +ESubs by Full4movies.mkv
Format                         : Matroska
Format version                 : Version 4 / Version 2
File size                      : 797 MiB
Duration                       : 1 h 36 min
Overall bit rate               : 1 161 kb/s
Movie name                     : Get The Gringo (2012) Hindi
Encoded date                   : UTC 2018-05-24 08:11:20
Writing application            : mkvmerge v8.1.0 ('Psychedelic Postcard') 32bit
Writing library                : libebml v1.3.1 + libmatroska v1.4.2
Cover                          : Yes
Attachments                    : Cover.jpg

Video
ID                             : 1
Format                         : AVC
Format/Info                    : Advanced Video Codec
Format profile                 : [email protected]
Format settings, CABAC         : Yes
Format settings, RefFrames     : 7 frames
Codec ID                       : V_MPEG4/ISO/AVC
Duration                       : 1 h 35 min
Bit rate                       : 775 kb/s
Width                          : 1 280 pixels
Height                         : 528 pixels
Display aspect ratio           : 2.40:1
Frame rate mode                : Constant
Frame rate                     : 23.976 (24000/1001) FPS
Color space                    : YUV
Chroma subsampling             : 4:2:0
Bit depth                      : 8 bits
Scan type                      : Progressive
Bits/(Pixel*Frame)             : 0.048
Stream size                    : 532 MiB (67%)
Writing library                : x264 core 120 r2164 da19765
Language                       : English
Default                        : Yes
Forced                         : No

Audio
ID                             : 2
Format                         : AC-3
Format/Info                    : Audio Coding 3
Mode                           : Dolby Digital
Format settings, Endianness    : Big
Codec ID                       : A_AC3
Duration                       : 1 h 36 min
Bit rate mode                  : Constant
Bit rate                       : 384 kb/s
Channel(s)                     : 2 channels
Channel positions              : Front: L R
Sampling rate                  : 48.0 kHz
Frame rate                     : 31.250 FPS (1536 SPF)
Bit depth                      : 16 bits
Compression mode               : Lossy
Delay relative to video        : -83 ms
Stream size                    : 264 MiB (33%)
Language                       : Hindi
Service kind                   : Complete Main
Default                        : Yes
Forced                         : Yes

Text
ID                             : 3
Format                         : UTF-8
Codec ID                       : S_TEXT/UTF8
Codec ID/Info                  : UTF-8 Plain Text
Duration                       : 1 h 27 min
Bit rate                       : 57 b/s
Count of elements              : 1396
Stream size                    : 37.1 KiB (0%)
Language                       : English
Default                        : Yes
Forced                         : Yes

Screen Shoots



#shmasti -> To avoid fakes, ALWAYS check that the torrent was added on ExtraTorrent.ag by shmasti

https://extratorrent.ag/



Download Get The Gringo (2012) 720p Hindi Dubbed HDRip x264 AC3 +ESubs by Full4movies torrent


Comments (please add your comment)
No comments



Home - Browse Torrents - Upload Torrent - Stat - Forum - FAQ - Login
ExtraTorrent.ag is in compliance with copyrights
2006-2018 ExtraTorrent.ag