ExtraTorrent.ag - The Largest Bittorent System Login   |    Register
Latest Articles
Most searched
Hot torrents
Movie Torrents
View Torrent Info: Long Shot (2019) [720p] [YTS] [YIFY]
View Torrent Info: Lying and Stealing (2019) [720p] [YTS] [YIFY]
View Torrent Info: The Intruder (2019) [720p] [YTS] [YIFY]
View Torrent Info: Point Blank (2019) [720p] [YTS] [YIFY]
View Torrent Info: Big Brother (2018) [720p] [YTS] [YIFY]
View Torrent Info: The Revenant (2009) [720p] [YTS] [YIFY]
View Torrent Info: iBoy (2017) [720p] [YTS] [YIFY]
View Torrent Info: I Got the Hook Up 2 (2019) [720p] [YTS] [YIFY]
View Torrent Info: Sheep and Wolves: Pig Deal (2019) [720p] [YTS] [YIFY]
View Torrent Info: Ninja (2009) [720p] [YTS] [YIFY]
Hot torrents
TV Torrents
View Torrent Info: Marvels.Agents.of.S.H.I.E.L.D.S06E09.HDTV.x264-SVA[eztv]
View Torrent Info: the.100.s06e10.web.h264-tbs[eztv]
View Torrent Info: The.Handmaids.Tale.S03E09.WEB.x264-PHOENiX[eztv]
View Torrent Info: big.little.lies.s02e06.web.h264-tbs[eztv]
View Torrent Info: Pandora.2019.S01E01.HDTV.x264-KILLERS[eztv]
View Torrent Info: Blood.and.Treasure.S01E10.HDTV.x264-KILLERS[eztv]
View Torrent Info: elementary.s07e08.web.x264-tbs[eztv]
View Torrent Info: Krypton.S02E05.HDTV.x264-SVA[eztv]
View Torrent Info: The.100.S06E10.480p.x264-mSD[eztv]
View Torrent Info: Animal.Kingdom.US.S04E08.HDTV.x264-SVA[eztv]
ExtraTorrent.ag > Categories > Movies torrents > HD torrents


Browse Movies torrents

Jurassic Park (1993) 720p - BDRip - x264 - [Hindi + Tamil + Eng] - ESub - MovCr torrent


Download torrent: Download Jurassic Park (1993) 720p - BDRip - x264 - [Hindi + Tamil + Eng] - ESub - MovCr torrent Magnet link Bookmark Torrent: Jurassic Park (1993) 720p - BDRip - x264 - [Hindi + Tamil + Eng] - ESub - MovCr Jurassic Park (1993) 720p - BDRip - x264 - [Hindi + Tamil + Eng] - ESub - MovCr torrent | if not working, try instead: Magnet Link
Info hash: 8C33618037AE85920E8ABEA1342AEAAF94E248F3
Category: Categories > Movies torrents > HD torrents
Trackers:
22    View all torrent trackers >
Health:
 seeds: 0 ,  leechers: 0 |  Update >
Torrent language:  
Total Size: 981.50 MB
Torrent status: Added by trusted uploader Added by trusted uploader Trusted Uploader Site Friend Superman Sun
Uploader: Trusted Uploader Site Friend Superman Sun
Torrent added: 2018-05-24 09:36:32
 

Download Jurassic Park (1993) 720p - BDRip - x264 - [Hindi + Tamil + Eng] - ESub - MovCr torrent if not working, try downloading torrent using Download Jurassic Park (1993) 720p - BDRip - x264 - [Hindi + Tamil + Eng] - ESub - MovCr via Magnet Link




Torrent Description

https://movcr.com/

Jurassic Park (1993) 720p - BDRip - x264 - [Hindi + Tamil + Eng] - ESub - MovCr


Video
ID : 1
Format : AVC
Format/Info : Advanced Video Codec
Format profile : [email protected]
Format settings, CABAC : Yes
Format settings, ReFrames : 5 frames
Codec ID : V_MPEG4/ISO/AVC
Duration : 2 h 6 min
Bit rate : 801 kb/s
Width : 1 280 pixels
Height : 696 pixels
Display aspect ratio : 1.85:1
Frame rate mode : Constant
Frame rate : 23.976 (24000/1001) FPS
Color space : YUV
Chroma subsampling : 4:2:0
Bit depth : 8 bits
Scan type : Progressive
Bits/(Pixel*Frame) : 0.038
Stream size : 725 MiB (74%)
Title : www.MovCr.com
Writing library : x264 core 114 r1924 08d04a4
Encoding settings : cabac=1 / ref=5 / deblock=1:-2:-1 / analyse=0x3:0x113 / me=umh / subme=5 / psy=1 / psy_rd=0.00:0.00 / mixed_ref=1 / me_range=16 / chroma_me=1 / trellis=1 / 8x8dct=1 / cqm=0 / deadzone=21,11 / fast_pskip=1 / chroma_qp_offset=0 / threads=3 / sliced_threads=0 / nr=0 / decimate=1 / interlaced=0 / constrained_intra=0 / bframes=16 / b_pyramid=2 / b_adapt=1 / b_bias=0 / direct=3 / weightb=1 / open_gop=0 / weightp=2 / keyint=250 / keyint_min=23 / scenecut=40 / intra_refresh=0 / rc=2pass / mbtree=0 / bitrate=801 / ratetol=1.0 / qcomp=0.60 / qpmin=10 / qpmax=51 / qpstep=4 / cplxblur=20.0 / qblur=0.5 / ip_ratio=1.40 / pb_ratio=1.30 / aq=2:1.00
Language : English
Default : Yes
Forced : Yes

Audio #1
ID : 2
Format : MPEG Audio
Format version : Version 1
Format profile : Layer 3
Mode : Joint stereo
Mode extension : MS Stereo
Codec ID : A_MPEG/L3
Codec ID/Hint : MP3
Duration : 2 h 6 min
Bit rate mode : Variable
Bit rate : 128 kb/s
Channel(s) : 2 channels
Sampling rate : 44.1 kHz
Frame rate : 38.281 FPS (1152 spf)
Compression mode : Lossy
Stream size : 111 MiB (11%)
Title : www.MovCr.com
Writing library : LAME3.99r
Encoding settings : -m j -V 4 -q 3 -lowpass 17 --abr 128
Language : Hindi
Default : Yes
Forced : No

Audio #2
ID : 3
Format : MPEG Audio
Format version : Version 1
Format profile : Layer 3
Mode : Joint stereo
Mode extension : MS Stereo
Codec ID : A_MPEG/L3
Codec ID/Hint : MP3
Duration : 2 h 6 min
Bit rate mode : Variable
Bit rate : 128 kb/s
Channel(s) : 2 channels
Sampling rate : 44.1 kHz
Frame rate : 38.281 FPS (1152 spf)
Compression mode : Lossy
Stream size : 113 MiB (12%)
Title : www.MovCr.com
Writing library : LAME3.99r
Encoding settings : -m j -V 4 -q 3 -lowpass 17 --abr 128
Language : Tamil
Default : No
Forced : Yes

Audio #3
ID : 4
Format : AAC
Format/Info : Advanced Audio Codec
Format profile : HE-AAC / LC
Codec ID : A_AAC
Duration : 2 h 6 min
Bit rate : 32.0 kb/s
Channel(s) : 2 channels
Channel positions : Front: L R
Sampling rate : 48.0 kHz / 24.0 kHz
Frame rate : 23.438 FPS (1024 spf)
Compression mode : Lossy
Stream size : 29.0 MiB (3%)
Title : www.MovCr.com
Language : English
Default : No
Forced : No

Text
ID : 5
Format : UTF-8
Codec ID : S_TEXT/UTF8
Codec ID/Info : UTF-8 Plain Text
Duration : 1 h 57 min
Bit rate : 48 b/s
Count of elements : 1217
Stream size : 41.3 KiB (0%)
Title : www.MovCr.com
Language : English
Default : Yes
Forced : Yes






#MovCr -> To avoid fakes, ALWAYS check that the torrent was added on ExtraTorrent.ag by MovCr

https://extratorrent.ag/



Download Jurassic Park (1993) 720p - BDRip - x264 - [Hindi + Tamil + Eng] - ESub - MovCr torrent


Comments (please add your comment)
No comments



Home - Browse Torrents - Upload Torrent - Stat - Forum - FAQ - Login
ExtraTorrent.ag is in compliance with copyrights
2006-2018 ExtraTorrent.ag