ExtraTorrent.ag - The Largest Bittorent System Login   |    Register
Latest Articles
Most searched
Hot torrents
Movie Torrents
View Torrent Info: The Spy Who Dumped Me (2018) [720p] [YTS] [YIFY]
View Torrent Info: The Spy Who Dumped Me (2018) [720p] [YTS] [YIFY]
View Torrent Info: Slender Man (2018) [720p] [YTS] [YIFY]
View Torrent Info: Apostle (2018) [720p] [YTS] [YIFY]
View Torrent Info: Blindspotting (2018) [720p] [YTS] [YIFY]
View Torrent Info: Sanju (2018) [720p] [YTS] [YIFY]
View Torrent Info: Look Away (2018) [720p] [YTS] [YIFY]
View Torrent Info: I Still See You (2018) [720p] [YTS] [YIFY]
View Torrent Info: Death Kiss (2018) [720p] [YTS] [YIFY]
View Torrent Info: Seven in Heaven (2018) [720p] [YTS] [YIFY]
Hot torrents
TV Torrents
View Torrent Info: Arrow.S07E01.HDTV.x264-SVA[eztv]
View Torrent Info: The.Flash.2014.S05E02.HDTV.x264-SVA[eztv]
View Torrent Info: Manifest.S01E04.HDTV.x264-KILLERS[eztv]
View Torrent Info: Supergirl.S04E01.HDTV.x264-SVA[eztv]
View Torrent Info: FBI.S01E04.HDTV.x264-SVA[eztv]
View Torrent Info: Blindspot.S04E01.HDTV.x264-KILLERS[eztv]
View Torrent Info: Magnum.P.I.2018.S01E04.HDTV.x264-SVA[eztv]
View Torrent Info: Modern.Family.S10E04.HDTV.x264-PHOENiX[eztv]
View Torrent Info: SEAL.Team.S02E03.HDTV.x264-PHOENiX[eztv]
View Torrent Info: the.resident.s02e04.web.x264-tbs[eztv]
ExtraTorrent.ag > Categories > Movies torrents > HD torrents


Browse Movies torrents

18+.RED.SPARROW.2018.720p.HC.HDRip.AC3.LLG torrent


Download torrent: Download 18+.RED.SPARROW.2018.720p.HC.HDRip.AC3.LLG torrent Magnet link Bookmark Torrent: 18+.RED.SPARROW.2018.720p.HC.HDRip.AC3.LLG 18+.RED.SPARROW.2018.720p.HC.HDRip.AC3.LLG torrent | if not working, try instead: Magnet Link
Info hash: D49E2BD0CD151245D46299F9992FAAE609589397
Category: Categories > Movies torrents > HD torrents
Trackers:
3    View all torrent trackers >
Health:
 seeds: 87 ,  leechers: 33 |  Update >
Torrent language:  
Total Size: 1.10 GB
Torrent status: Added by trusted uploader Added by trusted uploader Trusted Uploader Site Friend Superman Sun
Uploader: Trusted Uploader Site Friend Superman Sun
Torrent added: 2018-04-16 13:47:48
 

Download 18+.RED.SPARROW.2018.720p.HC.HDRip.AC3.LLG torrent if not working, try downloading torrent using Download 18+.RED.SPARROW.2018.720p.HC.HDRip.AC3.LLG via Magnet Link




Torrent Description





******************************Thumbnail:**********************



******************************Screenshots:********************

Screenshot 1

Screenshot 2

Screenshot 3

Screenshot 4

Screenshot 5

Screenshot 6

Screenshot 7

Screenshot 8

Screenshot 9

Screenshot 0

**************************************************************

Complete name : 18+.RED.SPARROW.2018.720p.HC.HDRip.AC3.LLG.mp4
Format : MPEG-4
Format profile : Base Media
Codec ID : isom (isom/iso2/avc1/mp41)
File size : 1.09 GiB
Duration : 2 h 15 min
Overall bit rate : 1 148 kb/s
Writing application : Lavf57.56.101

Video
ID : 1
Format : AVC
Format/Info : Advanced Video Codec
Format profile : [email protected]
Format settings : CABAC / 4 Ref Frames
Format settings, CABAC : Yes
Format settings, RefFrames : 4 frames
Codec ID : avc1
Codec ID/Info : Advanced Video Coding
Duration : 2 h 15 min
Bit rate : 900 kb/s
Width : 1 280 pixels
Height : 720 pixels
Display aspect ratio : 2.40:1
Original display aspect ratio : 2.40:1
Frame rate mode : Constant
Frame rate : 29.970 (29970/1000) FPS
Color space : YUV
Chroma subsampling : 4:2:0
Bit depth : 8 bits
Scan type : Progressive
Bits/(Pixel*Frame) : 0.033
Stream size : 861 MiB (77%)

Audio
ID : 2
Format : AC-3
Format/Info : Audio Coding 3
Codec ID : ac-3
Duration : 2 h 15 min
Bit rate mode : Constant
Bit rate : 256 kb/s
Channel(s) : 2 channels
Channel positions : Front: L R
Sampling rate : 48.0 kHz
Frame rate : 31.250 FPS (1536 SPF)
Bit depth : 16 bits
Compression mode : Lossy
Stream size : 249 MiB (22%)
Language : English
Service kind : Complete Main
Default : Yes
Alternate group : 1



#LifeLongg -> To avoid fakes, ALWAYS check that the torrent was added on ExtraTorrent.ag by LifeLongg

https://extratorrent.ag/



Download 18+.RED.SPARROW.2018.720p.HC.HDRip.AC3.LLG torrent


Comments (please add your comment)
No comments



Home - Browse Torrents - Upload Torrent - Stat - Forum - FAQ - Login
ExtraTorrent.ag is in compliance with copyrights
2006-2018 ExtraTorrent.ag