ExtraTorrent.ag - The Largest Bittorent System Login   |    Register
Latest Articles
Most searched
Hot torrents
Movie Torrents
View Torrent Info: Men in Black: International (2019) [720p] [YTS] [YIFY]
View Torrent Info: The Flood (2019) [720p] [YTS] [YIFY]
View Torrent Info: Night Hunter (2018) [720p] [YTS] [YIFY]
View Torrent Info: Hoax (2019) [720p] [YTS] [YIFY]
View Torrent Info: Sextuplets (2019) [720p] [YTS] [YIFY]
View Torrent Info: Invader ZIM: Enter the Florpus (2019) [720p] [YTS] [YIFY]
View Torrent Info: Camp Wedding (2019) [720p] [YTS] [YIFY]
View Torrent Info: Agent Mr Chan (2018) [720p] [YTS] [YIFY]
View Torrent Info: Canal Street (2018) [720p] [YTS] [YIFY]
View Torrent Info: Low Low (2019) [720p] [YTS] [YIFY]
Hot torrents
TV Torrents
View Torrent Info: Suits.S09E06.HDTV.x264-aAF[eztv]
View Torrent Info: The.100.S06E13.HDTV.x264-SVA[eztv]
View Torrent Info: pearson.s01e06.webrip.x264-tbs[eztv]
View Torrent Info: bachelor.in.paradise.s06e06.web.h264-tbs[eztv]
View Torrent Info: Elementary.S07E13.HDTV.x264-KILLERS[eztv]
View Torrent Info: bachelor.in.paradise.s06e05.web.h264-tbs[eztv]
View Torrent Info: snowfall.s03e07.hdtv.x264-lucidtv[eztv]
View Torrent Info: MasterChef.US.S10E20.One.Pan.Wonder.WEB.x264-CAFFEiNE[eztv]
View Torrent Info: Animal.Kingdom.US.S04E13.HDTV.x264-SVA[eztv]
View Torrent Info: BH90210.S01E03.WEB.x264-TBS[eztv]
ExtraTorrent.ag > Categories > Movies torrents > Dubbed /Dual Audio torrents


Browse Movies torrents

Valerian And The City Of A Thousand Planets 2017 720p BluRay Dual Audio [Hindi DD 5.1 - English 2.0] ESub [Moviezworldz] torrent


Download torrent: Download Valerian And The City Of A Thousand Planets 2017 720p BluRay Dual Audio [Hindi DD 5.1 - English 2.0] ESub [Moviezworldz] torrent Magnet link Bookmark Torrent: Valerian And The City Of A Thousand Planets 2017 720p BluRay Dual Audio [Hindi DD 5.1 - English 2.0] ESub [Moviezworldz] Valerian And The City Of A Thousand Planets 2017 720p BluRay Dual Audio [Hindi DD 5.1 - English 2.0] ESub [Moviezworldz] torrent | if not working, try instead: Magnet Link
Info hash: 765D95B803715B8B5A875B8CB4E263EEB3C39060
Category: Categories > Movies torrents > Dubbed /Dual Audio torrents
Trackers:
15    View all torrent trackers >
Health:
 seeds: 132 ,  leechers: 142 |  Update >
Total Size: 1.20 GB
Torrent status: Added by trusted uploader Added by trusted uploader Trusted Uploader Site Friend Superman Sun
Uploader: Trusted Uploader Site Friend Superman Sun
Torrent added: 2017-12-05 10:28:19
 

Download Valerian And The City Of A Thousand Planets 2017 720p BluRay Dual Audio [Hindi DD 5.1 - English 2.0] ESub [Moviezworldz] torrent if not working, try downloading torrent using Download Valerian And The City Of A Thousand Planets 2017 720p BluRay Dual Audio [Hindi DD 5.1 - English 2.0] ESub [Moviezworldz] via Magnet Link




Torrent Description

Valerian And The City Of A Thousand Planets 2017 720p BluRay Dual Audio [Hindi DD 5.1 - English 2.0] ESub






General
Format : Matroska
Format version : Version 4 / Version 2
File size : 1.20 GiB
Duration : 2 h 17 min
Overall bit rate : 1 252 kb/s

Video
ID : 1
Format : AVC
Format/Info : Advanced Video Codec
Format profile : [email protected]
Format settings : CABAC / 4 Ref Frames
Format settings, CABAC : Yes
Format settings, RefFrames : 4 frames
Codec ID : V_MPEG4/ISO/AVC
Duration : 2 h 17 min
Bit rate : 900 kb/s
Width : 1 280 pixels
Height : 534 pixels
Display aspect ratio : 2.40:1
Original display aspect ratio : 2.40:1
Frame rate mode : Constant
Frame rate : 23.976 (24000/1001) FPS
Color space : YUV
Chroma subsampling : 4:2:0
Bit depth : 8 bits
Scan type : Progressive
Bits/(Pixel*Frame) : 0.055
Stream size : 882 MiB (72%)
Writing library : x264 core 148
Default : Yes
Forced : No

Audio #1
ID : 2
Format : AC-3
Format/Info : Audio Coding 3
Format settings, Endianness : Big
Codec ID : A_AC3
Duration : 2 h 17 min
Bit rate mode : Constant
Bit rate : 224 kb/s
Channel(s) : 6 channels
Channel positions : Front: L C R, Side: L R, LFE
Sampling rate : 48.0 kHz
Frame rate : 31.250 FPS (1536 SPF)
Bit depth : 16 bits
Compression mode : Lossy
Delay relative to video : 21 s 257 ms
Stream size : 219 MiB (18%)
Language : Hindi
Service kind : Complete Main
Default : Yes
Forced : No

Audio #2
ID : 3
Format : AAC
Format/Info : Advanced Audio Codec
Format profile : LC
Codec ID : A_AAC-2
Duration : 2 h 17 min
Bit rate : 126 kb/s
Channel(s) : 2 channels
Channel positions : Front: L R
Sampling rate : 48.0 kHz
Frame rate : 46.875 FPS (1024 SPF)
Compression mode : Lossy
Delay relative to video : -43 ms
Stream size : 123 MiB (10%)
Language : English
Default : No
Forced : No

Text
ID : 4
Format : UTF-8
Codec ID : S_TEXT/UTF8
Codec ID/Info : UTF-8 Plain Text
Duration : 2 h 8 min
Bit rate : 55 b/s
Count of elements : 1571
Stream size : 52.5 KiB (0%)
Default : Yes
Forced : No













#moviezworldz -> To avoid fakes, ALWAYS check that the torrent was added on ExtraTorrent.ag by moviezworldz

https://extratorrent.ag/



Download Valerian And The City Of A Thousand Planets 2017 720p BluRay Dual Audio [Hindi DD 5.1 - English 2.0] ESub [Moviezworldz] torrent


Comments (please add your comment)
No comments



Home - Browse Torrents - Upload Torrent - Stat - Forum - FAQ - Login
ExtraTorrent.ag is in compliance with copyrights
2006-2018 ExtraTorrent.ag