ExtraTorrent.ag - The Largest Bittorent System Login   |    Register
Latest Articles
Most searched
Hot torrents
Movie Torrents
View Torrent Info: Ad Astra (2019) [720p] [YTS] [YIFY]
View Torrent Info: Ad Astra (2019) [720p] [YTS] [YIFY]
View Torrent Info: Grand Isle (2019) [720p] [YTS] [YIFY]
View Torrent Info: Trauma Center (2019) [720p] [YTS] [YIFY]
View Torrent Info: Marriage Story (2019) [720p] [YTS] [YIFY]
View Torrent Info: The Mummy Rebirth (2019) [720p] [YTS] [YIFY]
View Torrent Info: D-Day (2019) [720p] [YTS] [YIFY]
View Torrent Info: Out of Liberty (2019) [720p] [YTS] [YIFY]
View Torrent Info: A Rainy Day in New York (2019) [720p] [YTS] [YIFY]
View Torrent Info: A Violent Separation (2019) [720p] [YTS] [YIFY]
Hot torrents
TV Torrents
View Torrent Info: The.Flash.2014.S06E08.HDTV.x264-SVA[eztv]
View Torrent Info: Vikings.S06E02.HDTV.x264-SVA[eztv]
View Torrent Info: The.Mandalorian.S01E05.WEB.x264-PHOENiX[eztv]
View Torrent Info: Arrow.S08E07.HDTV.x264-SVA[eztv]
View Torrent Info: Vikings.S06E01.HDTV.x264-SVA[eztv]
View Torrent Info: The.Good.Doctor.S03E10.HDTV.x264-SVA[eztv]
View Torrent Info: Supernatural.S15E07.HDTV.x264-SVA[eztv]
View Torrent Info: Legacies.S02E07.HDTV.x264-SVA[eztv]
View Torrent Info: SEAL.Team.S03E09.HDTV.x264-KILLERS[eztv]
View Torrent Info: The.Blacklist.S07E09.480p.x264-mSD[eztv]
ExtraTorrent.ag > Categories > Movies torrents > Dubbed /Dual Audio torrents


Browse Movies torrents

Valerian and the City of a Thousand Planets 2017 [KiSS] 720p BluRay Mp4 Dual-Audio Multi-Subs torrent


Download torrent: Download Valerian and the City of a Thousand Planets 2017 [KiSS] 720p BluRay Mp4 Dual-Audio Multi-Subs torrent Magnet link Bookmark Torrent: Valerian and the City of a Thousand Planets 2017 [KiSS] 720p BluRay Mp4 Dual-Audio Multi-Subs Valerian and the City of a Thousand Planets 2017 [KiSS] 720p BluRay Mp4 Dual-Audio Multi-Subs torrent | if not working, try instead: Magnet Link
Info hash: 3C956DAF1CC5E1C9D4E4527638614D419CDBD0CC
Category: Categories > Movies torrents > Dubbed /Dual Audio torrents
Trackers:
8    View all torrent trackers >
Health:
 seeds: 49 ,  leechers: 48 |  Update >
Torrent language:  
Total Size: 1.10 GB
Torrent status: Added by trusted uploader Added by trusted uploader Trusted Uploader Site Friend Superman Sun
Uploader: Trusted Uploader Site Friend Superman Sun
Torrent added: 2017-11-22 05:06:18
 

Download Valerian and the City of a Thousand Planets 2017 [KiSS] 720p BluRay Mp4 Dual-Audio Multi-Subs torrent if not working, try downloading torrent using Download Valerian and the City of a Thousand Planets 2017 [KiSS] 720p BluRay Mp4 Dual-Audio Multi-Subs via Magnet Link




Torrent Description




Valerian and the City of a Thousand Planets 2017 [KiSS] 720p BluRay Eng-Spanish

www.imdb.com/title/tt2239822
Imdb Rating - 6.6/10

There are srt subs of multiple languages but Eng is set to default to play on all players If file is within the video location.Its a great quality in this size of mp4 Eglish & Spanish AAC Audio.







In the 28th century, special operatives Valerian (Dane DeHaan) and Laureline work together to maintain order throughout the human territories. Under assignment from the minister of defense, the duo embarks on a mission to Alpha, an ever-expanding metropolis where diverse species gather to share knowledge and culture. When a dark force threatens the peaceful city, Valerian and Laureline must race against time to identify the menace that also jeopardizes the future of the universe.
























Like Our Page
www.facebook.com/KissToonTv







Quote:


Screens - https://imgur.com/a/55RqE

{---Bluray Compatiable-----}

General
Complete name : Valerian and the City of a Thousand Planets 2017 [KiSS] 720p BluRay Eng-Spanish.mp4

Format : MPEG-4
Format profile : Base Media
Codec ID : isom (isom/avc1)
File size : 1.12 GiB
Duration : 2 h 17 min
Overall bit rate mode : Variable
Overall bit rate : 1 174 kb/s
Movie name : Valerian and the City of a Thousand Planets 2017 [KiSS] 720p BluRay
Recorded date : 2017
Encoded date : UTC 2017-11-22 02:26:26
Tagged date : UTC 2017-11-22 02:26:26
Xtra : WM/ContentDistributor

Video
ID : 1
Format : AVC
Format/Info : Advanced Video Codec
Format profile : [email protected]
Format settings : CABAC / 5 Ref Frames
Format settings, CABAC : Yes
Format settings, RefFrames : 5 frames
Codec ID : avc1
Codec ID/Info : Advanced Video Coding
Duration : 2 h 17 min
Bit rate : 805 kb/s
Maximum bit rate : 4 873 kb/s
Width : 960 pixels
Height : 720 pixels
Display aspect ratio : 2.40:1
Frame rate mode : Constant
Frame rate : 23.976 (24000/1001) FPS
Color space : YUV
Chroma subsampling : 4:2:0
Bit depth : 8 bits
Scan type : Progressive
Bits/(Pixel*Frame) : 0.049
Stream size : 788 MiB (68%)
Writing library : x264 core 148 r2721 72d53ab
Encoding settings : cabac=1 / ref=6 / deblock=1:0:0 / analyse=0x3:0x133 / me=umh / subme=9 / psy=1 / psy_rd=1.00:0.00 / mixed_ref=1 / me_range=16 / chroma_me=1 / trellis=2 / 8x8dct=1 / cqm=0 / deadzone=21,11 / fast_pskip=1 / chroma_qp_offset=-2 / threads=6 / lookahead_threads=1 / sliced_threads=0 / nr=0 / decimate=1 / interlaced=0 / bluray_compat=1 / constrained_intra=0 / bframes=3 / b_pyramid=1 / b_adapt=2 / b_bias=0 / direct=3 / weightb=1 / open_gop=0 / weightp=1 / keyint=250 / keyint_min=1 / scenecut=40 / intra_refresh=0 / rc_lookahead=60 / rc=2pass / mbtree=1 / bitrate=805 / ratetol=1.0 / qcomp=0.60 / qpmin=0 / qpmax=69 / qpstep=4 / cplxblur=20.0 / qblur=0.5 / ip_ratio=1.40 / aq=1:1.00
Encoded date : UTC 2017-11-22 02:26:26
Tagged date : UTC 2017-11-22 02:26:43

Audio #1
ID : 2
Format : AAC
Format/Info : Advanced Audio Codec
Format profile : LC
Codec ID : mp4a-40-2
Duration : 2 h 17 min
Bit rate mode : Variable
Bit rate : 212 kb/s
Maximum bit rate : 255 kb/s
Channel(s) : 2 channels
Channel positions : Front: L R
Sampling rate : 48.0 kHz
Frame rate : 46.875 FPS (1024 SPF)
Compression mode : Lossy
Stream size : 208 MiB (18%)
Language : English
Encoded date : UTC 2017-11-22 02:26:36
Tagged date : UTC 2017-11-22 02:26:43

Audio #2
ID : 3
Format : AAC
Format/Info : Advanced Audio Codec
Format profile : LC
Codec ID : mp4a-40-2
Duration : 2 h 17 min
Bit rate mode : Variable
Bit rate : 153 kb/s
Maximum bit rate : 194 kb/s
Channel(s) : 2 channels
Channel positions : Front: L R
Sampling rate : 48.0 kHz
Frame rate : 46.875 FPS (1024 SPF)
Compression mode : Lossy
Stream size : 150 MiB (13%)
Language : Spanish
Encoded date : UTC 2017-11-22 02:17:03
Tagged date : UTC 2017-11-22 02:26:43

Soft Subs :

Format : Srt (UnMuxed)

Languages :

1.English (Default)
2.Dutch
3.Finnish
4.French
5.Norwegian
6.Portuguese
7.Romanian
8.Serbian
9.Spanish
10.urdu
11.Arabic













#KissToonTv -> To avoid fakes, ALWAYS check that the torrent was added on ExtraTorrent.ag by KissToonTv

https://extratorrent.ag/



Download Valerian and the City of a Thousand Planets 2017 [KiSS] 720p BluRay Mp4 Dual-Audio Multi-Subs torrent


Comments (please add your comment)
1
posted by ashrafbhatti (2017-11-23 05:46:50)
ashrafbhatti avatar Please upload hindi


2
posted by arecrt (2017-11-27 11:50:59)
arecrt avatar Real extratorrent is back on - xtor.club





Home - Browse Torrents - Upload Torrent - Stat - Forum - FAQ - Login
ExtraTorrent.ag is in compliance with copyrights
2006-2018 ExtraTorrent.ag