ExtraTorrent.ag - The Largest Bittorent System Login   |    Register
Latest Articles
Most searched
Hot torrents
Movie Torrents
View Torrent Info: Men in Black: International (2019) [720p] [YTS] [YIFY]
View Torrent Info: The Flood (2019) [720p] [YTS] [YIFY]
View Torrent Info: Night Hunter (2018) [720p] [YTS] [YIFY]
View Torrent Info: Hoax (2019) [720p] [YTS] [YIFY]
View Torrent Info: Sextuplets (2019) [720p] [YTS] [YIFY]
View Torrent Info: Invader ZIM: Enter the Florpus (2019) [720p] [YTS] [YIFY]
View Torrent Info: Camp Wedding (2019) [720p] [YTS] [YIFY]
View Torrent Info: Agent Mr Chan (2018) [720p] [YTS] [YIFY]
View Torrent Info: Canal Street (2018) [720p] [YTS] [YIFY]
View Torrent Info: Low Low (2019) [720p] [YTS] [YIFY]
Hot torrents
TV Torrents
View Torrent Info: Suits.S09E06.HDTV.x264-aAF[eztv]
View Torrent Info: The.100.S06E13.HDTV.x264-SVA[eztv]
View Torrent Info: pearson.s01e06.webrip.x264-tbs[eztv]
View Torrent Info: bachelor.in.paradise.s06e06.web.h264-tbs[eztv]
View Torrent Info: Elementary.S07E13.HDTV.x264-KILLERS[eztv]
View Torrent Info: bachelor.in.paradise.s06e05.web.h264-tbs[eztv]
View Torrent Info: snowfall.s03e07.hdtv.x264-lucidtv[eztv]
View Torrent Info: MasterChef.US.S10E20.One.Pan.Wonder.WEB.x264-CAFFEiNE[eztv]
View Torrent Info: Animal.Kingdom.US.S04E13.HDTV.x264-SVA[eztv]
View Torrent Info: BH90210.S01E03.WEB.x264-TBS[eztv]
ExtraTorrent.ag > Categories > TV torrents > HD torrents


Browse TV torrents

Fear.the.Walking.Dead.S03E15.720p.HDTV.x264-FLEET torrent


Download torrent: Download Fear.the.Walking.Dead.S03E15.720p.HDTV.x264-FLEET torrent Magnet link Bookmark Torrent: Fear.the.Walking.Dead.S03E15.720p.HDTV.x264-FLEET Fear.the.Walking.Dead.S03E15.720p.HDTV.x264-FLEET torrent | if not working, try instead: Magnet Link
Info hash: 57A9147BA0068A14B909E7452AC824D384900E8E
Category: Categories > TV torrents > HD torrents
Trackers:
14    View all torrent trackers >
Health:
 seeds: 15 ,  leechers: 15 |  Update >
Torrent language:  
Total Size: 990.10 MB
Torrent status: Added by trusted uploader Added by trusted uploader Trusted Uploader Site Friend Superman Sun
Uploader: Trusted Uploader Site Friend Superman Sun
Torrent added: 2017-10-16 04:28:43
 

Download Fear.the.Walking.Dead.S03E15.720p.HDTV.x264-FLEET torrent if not working, try downloading torrent using Download Fear.the.Walking.Dead.S03E15.720p.HDTV.x264-FLEET via Magnet Link




Torrent Description

Fear.the.Walking.Dead.S03E15.720p.HDTV.x264-FLEET



Complete name : Fear.the.Walking.Dead.S03E15.720p.HDTV.x264-FLEET.mkv
Format : Matroska
Format version : Version 2
File size : 990 MiB
Duration : 47 min 13 s
Overall bit rate : 2 931 kb/s
Writing application : x264.exe
Writing library : mkv2rls x264-tv version built on 2016.10.12

Video
ID : 1
Format : AVC
Format/Info : Advanced Video Codec
Format profile : [email protected]
Format settings, CABAC : Yes
Format settings, ReFrames : 5 frames
Codec ID : V_MPEG4/ISO/AVC
Duration : 47 min 13 s
Bit rate : 2 488 kb/s
Width : 1 280 pixels
Height : 720 pixels
Display aspect ratio : 16:9
Frame rate mode : Constant
Frame rate : 23.976 (24000/1001) FPS
Color space : YUV
Chroma subsampling : 4:2:0
Bit depth : 8 bits
Scan type : Progressive
Bits/(Pixel*Frame) : 0.113
Stream size : 841 MiB (85%)
Writing library : x264 core 152 r2851 ba24899
Encoding settings : cabac=1 / ref=5 / deblock=1:0:0 / analyse=0x3:0x113 / me=hex / subme=8 / psy=1 / psy_rd=1.00:0.00 / mixed_ref=1 / me_range=16 / chroma_me=1 / trellis=2 / 8x8dct=1 / cqm=0 / deadzone=21,11 / fast_pskip=1 / chroma_qp_offset=-2 / threads=22 / lookahead_threads=3 / sliced_threads=0 / nr=0 / decimate=1 / interlaced=0 / bluray_compat=0 / constrained_intra=0 / bframes=3 / b_pyramid=2 / b_adapt=1 / b_bias=0 / direct=3 / weightb=1 / open_gop=0 / weightp=2 / keyint=250 / keyint_min=23 / scenecut=40 / intra_refresh=0 / rc_lookahead=50 / rc=crf / mbtree=1 / crf=18.0 / qcomp=0.60 / qpmin=0 / qpmax=69 / qpstep=4 / ip_ratio=1.40 / aq=1:1.00
Language : English
Default : Yes
Forced : No
Color range : Limited
Matrix coefficients : BT.709

Audio
ID : 2
Format : AC-3
Format/Info : Audio Coding 3
Format settings, Endianness : Big
Codec ID : A_AC3
Duration : 47 min 13 s
Bit rate mode : Constant
Bit rate : 384 kb/s
Channel(s) : 6 channels
Channel positions : Front: L C R, Side: L R, LFE
Sampling rate : 48.0 kHz
Frame rate : 31.250 FPS (1536 spf)
Bit depth : 16 bits
Compression mode : Lossy
Stream size : 130 MiB (13%)
Language : English
Service kind : Complete Main
Default : Yes
Forced : No

Text
ID : 3
Format : UTF-8
Codec ID : S_TEXT/UTF8
Codec ID/Info : UTF-8 Plain Text
Title : English
Language : English
Default : No
Forced : No






Click To View Screenshot

Click To View Screenshot

Click To View Screenshot



#showstopper -> To avoid fakes, ALWAYS check that the torrent was added on ExtraTorrent.ag by showstopper

https://extratorrent.ag/



Download Fear.the.Walking.Dead.S03E15.720p.HDTV.x264-FLEET torrent


Comments (please add your comment)
No comments



Home - Browse Torrents - Upload Torrent - Stat - Forum - FAQ - Login
ExtraTorrent.ag is in compliance with copyrights
2006-2018 ExtraTorrent.ag