ExtraTorrent.ag - The Largest Bittorent System Login   |    Register
Latest Articles
Most searched
Hot torrents
Movie Torrents
View Torrent Info: Dunkirk (2017) [720p] [YTS] [YIFY]
View Torrent Info: Mother! (2017) [720p] [YTS] [YIFY]
View Torrent Info: Stronger (2017) [720p] [YTS] [YIFY]
View Torrent Info: The LEGO Ninjago Movie (2017) [720p] [YTS] [YIFY]
View Torrent Info: Victoria & Abdul (2017) [720p] [YTS] [YIFY]
View Torrent Info: Leatherface (2017) [720p] [YTS] [YIFY]
View Torrent Info: Singularity (2017) [720p] [YTS] [YIFY]
View Torrent Info: Enter Nowhere (2011) [720p] [YTS] [YIFY]
View Torrent Info: Holiday Joy (2016) [720p] [YTS] [YIFY]
View Torrent Info: The Holly Kane Experiment (2017) [720p] [YTS] [YIFY]
Hot torrents
TV Torrents
View Torrent Info: Marvels.Agents.of.S.H.I.E.L.D.S05E03.HDTV.x264-SVA[eztv]
View Torrent Info: Gotham.S04E11.HDTV.x264-SVA[eztv]
View Torrent Info: The.Big.Bang.Theory.S11E10.HDTV.x264-SVA[eztv]
View Torrent Info: The.Walking.Dead.S08E08.CONVERT.WEB.h264-TBS[eztv]
View Torrent Info: Arrow.S06E09.HDTV.x264-SVA[eztv]
View Torrent Info: Marvels.Runaways.S01E05.WEB.h264-TBS[eztv]
View Torrent Info: DCs.Legends.of.Tomorrow.S03E09.HDTV.x264-SVA[eztv]
View Torrent Info: Hawaii.Five-0.2010.S08E09.HDTV.x264-LOL[eztv]
View Torrent Info: Outlander.S03E13.WEB.H264-STRiFE[eztv]
View Torrent Info: Vikings.S05E03.HDTV.x264-KILLERS[eztv]
ExtraTorrent.ag > Categories > Movies torrents > HEVC/x265 torrents


Browse Movies torrents

Guardians of the Galaxy Vol. 2 2017 1080p Bluray x265 10Bit AAC 7.1 - GetSchwifty torrent


Download torrent: Download Guardians of the Galaxy Vol. 2 2017 1080p Bluray x265 10Bit AAC 7.1 - GetSchwifty torrent Magnet link Bookmark Torrent: Guardians of the Galaxy Vol. 2 2017 1080p Bluray x265 10Bit AAC 7.1 - GetSchwifty Guardians of the Galaxy Vol. 2 2017 1080p Bluray x265 10Bit AAC 7.1 - GetSchwifty torrent | if not working, try instead: Magnet Link
Info hash: DE5995204532B7791FE18170D2FEA304EE404F0C
Category: Categories > Movies torrents > HEVC/x265 torrents
Trackers:
7    View all torrent trackers >
Health:
 seeds: 383 ,  leechers: 286 |  Update >
Torrent language:  
Total Size: 3.00 GB
Torrent status: Added by trusted uploader Added by trusted uploader Trusted Uploader Site Friend Superman Sun
Uploader: Trusted Uploader Site Friend Superman Sun
Torrent added: 2017-08-12 06:35:26
 

Download Guardians of the Galaxy Vol. 2 2017 1080p Bluray x265 10Bit AAC 7.1 - GetSchwifty torrent if not working, try downloading torrent using Download Guardians of the Galaxy Vol. 2 2017 1080p Bluray x265 10Bit AAC 7.1 - GetSchwifty via Magnet Link




Torrent Description

Source File:

Guardians of the Galaxy Vol. 2 2017 BluRay 1080p DTS-HD MA 7.1 AVC REMUX-FraMeSToR






Media Information:


Code:

General
Unique ID : 201302584257320079727242997104715450305 (0x977177AD72ED7D38ADCBB2C0845F47C1)
Complete name : G:\Seeding\Guardians of the Galaxy Vol. 2 2017 1080p Bluray x265 10Bit AAC 7.1 - GetSchwifty\Guardians of the Galaxy Vol. 2 2017 1080p Bluray x265 10Bit AAC 7.1 - GetSchwifty.mkv
Format : Matroska
Format version : Version 4 / Version 2
File size : 3.02 GiB
Duration : 2 h 15 min
Overall bit rate : 3 188 kb/s
Movie name : Guardians of the Galaxy Vol. 2
Encoded date : UTC 2017-08-12 01:29:07
Writing application : mkvmerge v14.0.0 ('Flow') 64bit
Writing library : libebml v1.3.4 + libmatroska v1.4.5

Video
ID : 1
Format : HEVC
Format/Info : High Efficiency Video Coding
Format profile : Main [email protected]@Main
Codec ID : V_MPEGH/ISO/HEVC
Duration : 2 h 15 min
Bit rate : 2 514 kb/s
Width : 1 920 pixels
Height : 800 pixels
Display aspect ratio : 2.40:1
Frame rate mode : Constant
Frame rate : 23.976 (24000/1001) FPS
Color space : YUV
Chroma subsampling : 4:2:0
Bit depth : 10 bits
Bits/(Pixel*Frame) : 0.068
Stream size : 2.38 GiB (79%)
Writing library : x265 2.5+6-d11482e5fedb:[Windows][GCC 6.2.1][64 bit] 10bit
Encoding settings : cpuid=1050111 / frame-threads=3 / numa-pools=8 / wpp / no-pmode / no-pme / no-psnr / no-ssim / log-level=2 / input-csp=1 / input-res=1920x800 / interlace=0 / total-frames=195313 / level-idc=0 / high-tier=1 / uhd-bd=0 / ref=5 / no-allow-non-conformance / no-repeat-headers / annexb / no-aud / no-hrd / info / hash=0 / no-temporal-layers / open-gop / min-keyint=23 / keyint=250 / bframes=8 / b-adapt=2 / b-pyramid / bframe-bias=0 / rc-lookahead=80 / lookahead-slices=5 / scenecut=40 / no-intra-refresh / ctu=64 / min-cu-size=8 / no-rect / no-amp / max-tu-size=32 / tu-inter-depth=1 / tu-intra-depth=1 / limit-tu=0 / rdoq-level=0 / dynamic-rd=0.00 / no-ssim-rd / signhide / no-tskip / nr-intra=0 / nr-inter=0 / no-constrained-intra / strong-intra-smoothing / max-merge=3 / limit-refs=3 / limit-modes / me=3 / subme=5 / merange=57 / temporal-mvp / weightp / weightb / no-analyze-src-pics / deblock=0:0 / sao / no-sao-non-deblock / rd=3 / no-early-skip / rskip / no-fast-intra / no-tskip-fast / no-cu-lossless / no-b-intra / rdpenalty=0 / psy-rd=0.30 / psy-rdoq=0.00 / no-rd-refine / analysis-reuse-mode=0 / no-lossless / cbqpoffs=0 / crqpoffs=0 / rc=abr / bitrate=2514 / qcomp=0.60 / qpstep=4 / stats-write=0 / stats-read=2 / cplxblur=20.0 / qblur=0.5 / ipratio=1.40 / pbratio=1.30 / aq-mode=3 / aq-strength=1.00 / cutree / zone-count=0 / no-strict-cbr / qg-size=32 / no-rc-grain / qpmax=69 / qpmin=0 / no-const-vbv / sar=0 / overscan=0 / videoformat=5 / range=0 / colorprim=2 / transfer=2 / colormatrix=2 / chromaloc=0 / display-window=0 / max-cll=0,0 / min-luma=0 / max-luma=1023 / log2-max-poc-lsb=8 / vui-timing-info / vui-hrd-info / slices=1 / opt-qp-pps / opt-ref-list-length-pps / no-multi-pass-opt-rps / scenecut-bias=0.05 / no-opt-cu-delta-qp / aq-motion / no-hdr / no-hdr-opt / no-dhdr10-opt / analysis-reuse-level=5 / scale-factor=0 / refine-intra=0 / refine-inter=0 / refine-mv=0 / no-limit-sao / ctu-info=0
Default : Yes
Forced : No

Audio #1
ID : 2
Format : AAC
Format/Info : Advanced Audio Codec
Format profile : LC
Codec ID : A_AAC
Duration : 2 h 15 min
Bit rate : 505 kb/s
Channel(s) : 7 channels
Channel(s)_Original : 8 channels
Channel positions : Front: L C R, Side: L R, Back: L R, LFE
Sampling rate : 48.0 kHz
Frame rate : 46.875 FPS (1024 spf)
Compression mode : Lossy
Delay relative to video : 9 ms
Stream size : 491 MiB (16%)
Title : English AAC VBR 7.1 ~328 Kbps
Language : English
Default : Yes
Forced : No

Audio #2
ID : 3
Format : AAC
Format/Info : Advanced Audio Codec
Format profile : HE-AAC / LC
Codec ID : A_AAC
Duration : 2 h 15 min
Bit rate : 68.5 kb/s
Channel(s) : 2 channels
Channel positions : Front: L R
Sampling rate : 48.0 kHz / 24.0 kHz
Frame rate : 23.438 FPS (1024 spf)
Compression mode : Lossy
Delay relative to video : 31 ms
Stream size : 66.5 MiB (2%)
Title : Commentary by Director James Gunn
Language : English
Default : No
Forced : No

Text #1
ID : 4
Format : PGS
Muxing mode : zlib
Codec ID : S_HDMV/PGS
Codec ID/Info : Picture based subtitle format used on BDs/HD-DVDs
Duration : 2 h 14 min
Bit rate : 36.4 kb/s
Count of elements : 3946
Stream size : 35.1 MiB (1%)
Title : English (SDH)
Language : English
Default : No
Forced : No

Text #2
ID : 5
Format : PGS
Muxing mode : zlib
Codec ID : S_HDMV/PGS
Codec ID/Info : Picture based subtitle format used on BDs/HD-DVDs
Duration : 2 h 14 min
Bit rate : 29.9 kb/s
Count of elements : 3236
Stream size : 28.8 MiB (1%)
Title : French
Language : French
Default : No
Forced : No

Text #3
ID : 6
Format : PGS
Muxing mode : zlib
Codec ID : S_HDMV/PGS
Codec ID/Info : Picture based subtitle format used on BDs/HD-DVDs
Duration : 2 h 14 min
Bit rate : 30.1 kb/s
Count of elements : 3208
Stream size : 29.0 MiB (1%)
Title : Spanish (Latin American)
Language : Spanish
Default : No
Forced : No

Text #4
ID : 7
Format : PGS
Muxing mode : zlib
Codec ID : S_HDMV/PGS
Codec ID/Info : Picture based subtitle format used on BDs/HD-DVDs
Duration : 2 h 15 min
Bit rate : 77.6 kb/s
Count of elements : 5160
Stream size : 75.2 MiB (2%)
Title : English (Commentary)
Language : English
Default : No
Forced : No

Text #5
ID : 8
Format : PGS
Muxing mode : zlib
Codec ID : S_HDMV/PGS
Codec ID/Info : Picture based subtitle format used on BDs/HD-DVDs
Duration : 2 h 15 min
Bit rate : 67.1 kb/s
Count of elements : 4998
Stream size : 65.0 MiB (2%)
Title : French (Commentary)
Language : French
Default : No
Forced : No

Text #6
ID : 9
Format : PGS
Muxing mode : zlib
Codec ID : S_HDMV/PGS
Codec ID/Info : Picture based subtitle format used on BDs/HD-DVDs
Duration : 2 h 15 min
Bit rate : 71.8 kb/s
Count of elements : 5002
Stream size : 69.6 MiB (2%)
Title : Spanish (Commentary)
Language : Spanish
Default : No
Forced : No

Menu
00:00:00.000 : en:King Cobra & Giant Sea Monkey
00:09:56.179 : en:Golden Morons
00:15:10.118 : en:Space Chase
00:22:14.083 : en:Not From Missouri
00:32:33.702 : en:Deepest, Darkest, Secrets
00:36:52.127 : en:Berhert Ambush
00:42:29.172 : en:Finding Meaning
00:48:03.464 : en:Taserface
00:53:18.904 : en:Celestial Catch
00:58:45.939 : en:Let's Agree To Never Discuss This
01:05:52.240 : en:Eclector Escape
01:11:12.435 : en:Sibling Rivalry
01:18:43.594 : en:Eternity
01:23:55.322 : en:Two Of A Kind
01:30:24.753 : en:Inflated Ego
01:39:36.179 : en:What A Day
01:47:06.211 : en:From The Heart
01:54:21.605 : en:A Father's Sacrifice
01:58:53.710 : en:The Colors Of Ogord
02:07:13.459 : en:End Credits



#GetSchwifty -> To avoid fakes, ALWAYS check that the torrent was added on ExtraTorrent.ag by GetSchwifty

https://extratorrent.ag/



Download Guardians of the Galaxy Vol. 2 2017 1080p Bluray x265 10Bit AAC 7.1 - GetSchwifty torrent


Comments (please add your comment)
1
posted by WaqasWaqasWaqas (2017-08-13 04:56:42)
WaqasWaqasWaqas avatar Fabulous Share Buddy Owesome Waiting For Hindi 5.1Ch





Home - Browse Torrents - Upload Torrent - Stat - Forum - FAQ - Login
ExtraTorrent.ag is in compliance with copyrights
2006-2017 ExtraTorrent.ag