ExtraTorrent.ag - The Largest Bittorent System Login   |    Register
Latest Articles
Most searched
Hot torrents
Movie Torrents
View Torrent Info: Lego Scooby-Doo! Blowout Beach Bash (2017) [720p] [YTS] [YIFY]
View Torrent Info: Tonight She Comes (2016) [720p] [YTS] [YIFY]
View Torrent Info: Phoenix Forgotten (2017) [720p] [YTS] [YIFY]
View Torrent Info: Stockholm, My Love (2016) [720p] [YTS] [YIFY]
Hot torrents
TV Torrents
View Torrent Info: Game.of.Thrones.S07E02.HDTV.x264-SVA
View Torrent Info: Zoo S03E05 HDTV x264-LOL [eztv]
View Torrent Info: The.Strain.S04E02.HDTV.x264-SVA [eztv]
View Torrent Info: The Night Shift S04E06 HDTV x264-KILLERS [eztv]
View Torrent Info: Signed S01E01 WEB x264-TBS [eztv]
View Torrent Info: Orphan.Black.S05E07.HDTV.x264-SVA [eztv]
View Torrent Info: Salvation S01E03 HDTV x264-LOL [eztv]
View Torrent Info: Ballers.2015.S03E01.HDTV.x264-SVA [eztv]
View Torrent Info: Game.of.Thrones.S07E02.iNTERNAL.HDTV.x264-WaLMaRT [eztv]
View Torrent Info: Killjoys S03E04 HDTV x264-SVA [eztv]
ExtraTorrent.ag > Categories > TV torrents > Divx/Xvid torrents


Browse TV torrents

Chris.Humpfreys.Animal.Instinct.S01E10.HDTV.x264-DOCERE torrent


Download torrent: Download Chris.Humpfreys.Animal.Instinct.S01E10.HDTV.x264-DOCERE torrent Magnet link Bookmark Torrent: Chris.Humpfreys.Animal.Instinct.S01E10.HDTV.x264-DOCERE Chris.Humpfreys.Animal.Instinct.S01E10.HDTV.x264-DOCERE torrent | if not working, try instead: Magnet Link
Info hash: 85CEE1836D8ED4F9D50BDC089D7BB7C73BAF41DE
Category: Categories > TV torrents > Divx/Xvid torrents
Trackers:
14    View all torrent trackers >
Health:
 seeds: 90 ,  leechers: 14 |  Update >
Torrent language:  
Total Size: 178.60 MB
Torrent status: Added by trusted uploader Added by trusted uploader Trusted Uploader Site Friend Superman Sun
Uploader: Trusted Uploader Site Friend Superman Sun
Torrent added: 2017-07-17 22:13:38
 

Download Chris.Humpfreys.Animal.Instinct.S01E10.HDTV.x264-DOCERE torrent if not working, try downloading torrent using Download Chris.Humpfreys.Animal.Instinct.S01E10.HDTV.x264-DOCERE via Magnet Link




Torrent Description

Chris.Humpfreys.Animal.Instinct.S01E10.HDTV.x264-DOCERE



Complete name : chris.humpfreys.animal.instinct.s01e10.hdtv-docere.mkv
Format : Matroska
Format version : Version 4 / Version 2
File size : 179 MiB
Duration : 24 min 10 s
Overall bit rate : 1 032 kb/s
Encoded date : UTC 2017-07-17 13:43:47
Writing application : mkvmerge v9.6.0 ('Slave To Your Mind') 64bit
Writing library : libebml v1.3.4 + libmatroska v1.4.5

Video
ID : 1
Format : AVC
Format/Info : Advanced Video Codec
Format profile : [email protected]
Format settings, CABAC : Yes
Format settings, ReFrames : 5 frames
Codec ID : V_MPEG4/ISO/AVC
Duration : 24 min 10 s
Bit rate : 903 kb/s
Width : 720 pixels
Height : 404 pixels
Display aspect ratio : 16:9
Frame rate mode : Constant
Frame rate : 50.000 FPS
Color space : YUV
Chroma subsampling : 4:2:0
Bit depth : 8 bits
Scan type : Progressive
Bits/(Pixel*Frame) : 0.062
Stream size : 156 MiB (88%)
Writing library : x264 core 152 r2851 ba24899
Encoding settings : cabac=1 / ref=5 / deblock=1:0:0 / analyse=0x3:0x113 / me=hex / subme=8 / psy=1 / psy_rd=1.00:0.00 / mixed_ref=1 / me_range=16 / chroma_me=1 / trellis=2 / 8x8dct=1 / cqm=0 / deadzone=21,11 / fast_pskip=1 / chroma_qp_offset=-2 / threads=6 / lookahead_threads=1 / sliced_threads=0 / nr=0 / decimate=1 / interlaced=0 / bluray_compat=0 / stitchable=1 / constrained_intra=0 / bframes=3 / b_pyramid=2 / b_adapt=1 / b_bias=0 / direct=3 / weightb=1 / open_gop=0 / weightp=2 / keyint=250 / keyint_min=25 / scenecut=40 / intra_refresh=0 / rc_lookahead=50 / rc=crf / mbtree=1 / crf=22.0 / qcomp=0.60 / qpmin=0 / qpmax=69 / qpstep=4 / ip_ratio=1.40 / aq=1:1.00
Default : Yes
Forced : No
Color range : Limited
Color primaries : BT.709
Transfer characteristics : BT.709
Matrix coefficients : BT.709

Audio
ID : 2
Format : AAC
Format/Info : Advanced Audio Codec
Format profile : LC
Codec ID : A_AAC
Duration : 24 min 10 s
Bit rate : 125 kb/s
Channel(s) : 2 channels
Channel positions : Front: L R
Sampling rate : 48.0 kHz
Frame rate : 46.875 FPS (1024 spf)
Compression mode : Lossy
Stream size : 21.7 MiB (12%)
Default : Yes
Forced : No






Click To View Screenshot

Click To View Screenshot

Click To View Screenshot



#showstopper -> To avoid fakes, ALWAYS check that the torrent was added on ExtraTorrent.ag by showstopper

https://extratorrent.ag/



Download Chris.Humpfreys.Animal.Instinct.S01E10.HDTV.x264-DOCERE torrent


Comments (please add your comment)
No comments



Home - Browse Torrents - Upload Torrent - Stat - Forum - FAQ - Login
ExtraTorrent.ag is in compliance with copyrights
2006-2017 ExtraTorrent.ag