ExtraTorrent.ag - The Largest Bittorent System Login   |    Register
Latest Articles
Most searched
Hot torrents
Movie Torrents
View Torrent Info: Going in Style (2017) [720p] [YTS] [YIFY]
View Torrent Info: The Circle (2017) [720p] [YTS] [YIFY]
View Torrent Info: S.W.A.T.: Under Siege (2017) [720p] [YTS] [YIFY]
View Torrent Info: Lego Scooby-Doo! Blowout Beach Bash (2017) [720p] [YTS] [YIFY]
View Torrent Info: Tonight She Comes (2016) [720p] [YTS] [YIFY]
View Torrent Info: The Hippopotamus (2017) [720p] [YTS] [YIFY]
View Torrent Info: Phoenix Forgotten (2017) [720p] [YTS] [YIFY]
View Torrent Info: Charlie Charlie (2016) [720p] [YTS] [YIFY]
View Torrent Info: Viral (2016) [720p] [YTS] [YIFY]
View Torrent Info: The Drowning (2016) [720p] [YTS] [YIFY]
Hot torrents
TV Torrents
View Torrent Info: Game.of.Thrones.S07E02.HDTV.x264-SVA
View Torrent Info: The.Strain.S04E02.HDTV.x264-SVA [eztv]
View Torrent Info: Midnight Texas S01E01 HDTV x264-KILLERS [eztv]
View Torrent Info: American Dad S13E15 HDTV x264-SVA [eztv]
View Torrent Info: Ballers.2015.S03E01.HDTV.x264-SVA [eztv]
View Torrent Info: Orphan.Black.S05E07.HDTV.x264-SVA [eztv]
View Torrent Info: Suits.S07E02.HDTV.x264-SVA[eztv]
View Torrent Info: Somewhere.Between.S01E02.HDTV.x264-KILLERS [eztv]
View Torrent Info: Killjoys S03E04 HDTV x264-SVA [eztv]
View Torrent Info: Power 2014 S04E05 Dont Thank Me AHDTV x264-CRiMSON [eztv]
ExtraTorrent.ag > Categories > Movies torrents > HD torrents


Browse Movies torrents

Unforgettable.2017.720p.BluRay.DTS.x264-iFT torrent


Download torrent: Download Unforgettable.2017.720p.BluRay.DTS.x264-iFT torrent Magnet link Bookmark Torrent: Unforgettable.2017.720p.BluRay.DTS.x264-iFT Unforgettable.2017.720p.BluRay.DTS.x264-iFT torrent | if not working, try instead: Magnet Link
Info hash: CF05D14A9EC1EF886E962408B02784D472929E2D
Category: Categories > Movies torrents > HD torrents
Trackers:
14    View all torrent trackers >
Health:
 seeds: 532 ,  leechers: 43 |  Update >
Torrent language:  
Total Size: 5.30 GB
Torrent status: Added by trusted uploader Added by trusted uploader Trusted Uploader Site Friend Superman Sun
Uploader: Trusted Uploader Site Friend Superman Sun
Torrent added: 2017-07-17 10:53:15
 

Download Unforgettable.2017.720p.BluRay.DTS.x264-iFT torrent if not working, try downloading torrent using Download Unforgettable.2017.720p.BluRay.DTS.x264-iFT via Magnet Link




Torrent Description

Unforgettable.2017.720p.BluRay.DTS.x264-iFT

ImDb: http://www.imdb.com/title/tt3462710



Complete name : Unforgettable.2017.720p.BluRay.DTS.x264-iFT.mkv
Format : Matroska
Format version : Version 4 / Version 2
File size : 5.27 GiB
Duration : 1 h 40 min
Overall bit rate mode : Variable
Overall bit rate : 7 538 kb/s
Encoded date : UTC 2017-07-17 07:55:04
Writing application : mkvmerge v9.9.0 ('Pick Up') 64bit
Writing library : libebml v1.3.4 + libmatroska v1.4.5

Video
ID : 1
Format : AVC
Format/Info : Advanced Video Codec
Format profile : [email protected]
Format settings, CABAC : Yes
Format settings, ReFrames : 8 frames
Codec ID : V_MPEG4/ISO/AVC
Duration : 1 h 40 min
Bit rate mode : Variable
Bit rate : 6 000 kb/s
Maximum bit rate : 62.5 Mb/s
Width : 1 280 pixels
Height : 720 pixels
Display aspect ratio : 16:9
Frame rate mode : Constant
Frame rate : 23.976 (24000/1001) FPS
Color space : YUV
Chroma subsampling : 4:2:0
Bit depth : 8 bits
Scan type : Progressive
Bits/(Pixel*Frame) : 0.272
Stream size : 4.19 GiB (79%)
Writing library : x264 core 142 r2431+42 c69a006 tMod [[email protected] X86_64]
Encoding settings : cabac=1 / ref=9 / deblock=1:-3:-3 / analyse=0x3:0x133 / me=umh / subme=11 / psy=1 / fade_compensate=0.00 / psy_rd=1.00:1.00 / mixed_ref=1 / me_range=48 / chroma_me=1 / trellis=2 / 8x8dct=1 / cqm=0 / deadzone=21,11 / fast_pskip=0 / chroma_qp_offset=-4 / threads=16 / lookahead_threads=2 / sliced_threads=0 / nr=0 / decimate=0 / interlaced=0 / bluray_compat=0 / constrained_intra=0 / fgo=0 / bframes=8 / b_pyramid=1 / b_adapt=2 / b_bias=0 / direct=3 / weightb=1 / open_gop=0 / weightp=2 / keyint=240 / keyint_min=23 / scenecut=40 / intra_refresh=0 / rc_lookahead=150 / rc=2pass / mbtree=0 / bitrate=6000 / ratetol=1.0 / qcomp=0.70 / qpmin=0:0:0 / qpmax=69:69:69 / qpstep=4 / cplxblur=20.0 / qblur=0.5 / vbv_maxrate=62500 / vbv_bufsize=78125 / nal_hrd=vbr / filler=0 / ip_ratio=1.30 / pb_ratio=1.20 / aq=2:0.80 / aq-sensitivity=10.00 / aq-factor=1.00:1.00:1.00 / aq2=0 / aq3=0
Default : Yes
Forced : No
Color range : Limited
Color primaries : BT.709
Transfer characteristics : BT.709
Matrix coefficients : BT.709

Audio
ID : 2
Format : DTS
Format/Info : Digital Theater Systems
Mode : 16
Format settings, Endianness : Big
Codec ID : A_DTS
Duration : 1 h 40 min
Bit rate mode : Constant
Bit rate : 1 509 kb/s
Channel(s) : 6 channels
Channel positions : Front: L C R, Side: L R, LFE
Sampling rate : 48.0 kHz
Frame rate : 93.750 FPS (512 spf)
Bit depth : 24 bits
Compression mode : Lossy
Stream size : 1.06 GiB (20%)
Default : Yes
Forced : No

Text #1
ID : 3
Format : PGS
Muxing mode : zlib
Codec ID : S_HDMV/PGS
Codec ID/Info : Picture based subtitle format used on BDs/HD-DVDs
Duration : 1 h 39 min
Bit rate : 10.0 kb/s
Count of elements : 2666
Stream size : 7.11 MiB (0%)
Title : English-PGS
Language : English
Default : Yes
Forced : No

Text #2
ID : 4
Format : PGS
Muxing mode : zlib
Codec ID : S_HDMV/PGS
Codec ID/Info : Picture based subtitle format used on BDs/HD-DVDs
Duration : 1 h 39 min
Bit rate : 8 280 b/s
Count of elements : 2366
Stream size : 5.87 MiB (0%)
Title : French-PGS
Language : French
Default : No
Forced : No

Text #3
ID : 5
Format : PGS
Muxing mode : zlib
Codec ID : S_HDMV/PGS
Codec ID/Info : Picture based subtitle format used on BDs/HD-DVDs
Duration : 1 h 39 min
Bit rate : 8 547 b/s
Count of elements : 2376
Stream size : 6.06 MiB (0%)
Title : Spanish-PGS
Language : Spanish
Default : No
Forced : No

Text #4
ID : 6
Format : PGS
Muxing mode : zlib
Codec ID : S_HDMV/PGS
Codec ID/Info : Picture based subtitle format used on BDs/HD-DVDs
Duration : 1 h 39 min
Bit rate : 8 480 b/s
Count of elements : 2408
Stream size : 6.02 MiB (0%)
Title : Portuguese-PGS
Language : Portuguese
Default : No
Forced : No

Text #5
ID : 7
Format : PGS
Muxing mode : zlib
Codec ID : S_HDMV/PGS
Codec ID/Info : Picture based subtitle format used on BDs/HD-DVDs
Duration : 1 h 38 min
Bit rate : 290 b/s
Count of elements : 66
Stream size : 210 KiB (0%)
Title : French-FORCED-PGS
Language : French
Default : No
Forced : No

Text #6
ID : 8
Format : PGS
Muxing mode : zlib
Codec ID : S_HDMV/PGS
Codec ID/Info : Picture based subtitle format used on BDs/HD-DVDs
Duration : 1 h 38 min
Bit rate : 331 b/s
Count of elements : 68
Stream size : 240 KiB (0%)
Title : Spanish-FORCED-PGS
Language : Spanish
Default : No
Forced : No

Text #7
ID : 9
Format : PGS
Muxing mode : zlib
Codec ID : S_HDMV/PGS
Codec ID/Info : Picture based subtitle format used on BDs/HD-DVDs
Duration : 1 h 37 min
Bit rate : 310 b/s
Count of elements : 68
Stream size : 222 KiB (0%)
Title : Portuguese-FORCED-PGS
Language : Portuguese
Default : No
Forced : No

Menu
00:00:00.000 : en:Chapter 01
00:09:57.054 : en:Chapter 02
00:18:48.043 : en:Chapter 03
00:28:13.983 : en:Chapter 04
00:36:48.831 : en:Chapter 05
00:47:02.319 : en:Chapter 06
00:56:55.370 : en:Chapter 07
01:08:42.159 : en:Chapter 08
01:17:40.322 : en:Chapter 09
01:26:15.628 : en:Chapter 10
01:37:16.163 : en:Chapter 11






Click To View Screenshot

Click To View Screenshot

Click To View Screenshot



#showstopper -> To avoid fakes, ALWAYS check that the torrent was added on ExtraTorrent.ag by showstopper

https://extratorrent.ag/



Download Unforgettable.2017.720p.BluRay.DTS.x264-iFT torrent


Comments (please add your comment)
No comments



Home - Browse Torrents - Upload Torrent - Stat - Forum - FAQ - Login
ExtraTorrent.ag is in compliance with copyrights
2006-2017 ExtraTorrent.ag