ExtraTorrent.ag - The Largest Bittorent System Login   |    Register
Latest Articles
Most searched
Hot torrents
Movie Torrents
View Torrent Info: Going in Style (2017) [720p] [YTS] [YIFY]
View Torrent Info: The Circle (2017) [720p] [YTS] [YIFY]
View Torrent Info: S.W.A.T.: Under Siege (2017) [720p] [YTS] [YIFY]
View Torrent Info: Lego Scooby-Doo! Blowout Beach Bash (2017) [720p] [YTS] [YIFY]
View Torrent Info: Tonight She Comes (2016) [720p] [YTS] [YIFY]
View Torrent Info: The Hippopotamus (2017) [720p] [YTS] [YIFY]
View Torrent Info: Phoenix Forgotten (2017) [720p] [YTS] [YIFY]
View Torrent Info: Charlie Charlie (2016) [720p] [YTS] [YIFY]
View Torrent Info: Viral (2016) [720p] [YTS] [YIFY]
View Torrent Info: The Drowning (2016) [720p] [YTS] [YIFY]
Hot torrents
TV Torrents
View Torrent Info: Game.of.Thrones.S07E02.HDTV.x264-SVA
View Torrent Info: The.Strain.S04E02.HDTV.x264-SVA [eztv]
View Torrent Info: Midnight Texas S01E01 HDTV x264-KILLERS [eztv]
View Torrent Info: American Dad S13E15 HDTV x264-SVA [eztv]
View Torrent Info: Ballers.2015.S03E01.HDTV.x264-SVA [eztv]
View Torrent Info: Orphan.Black.S05E07.HDTV.x264-SVA [eztv]
View Torrent Info: Suits.S07E02.HDTV.x264-SVA[eztv]
View Torrent Info: Somewhere.Between.S01E02.HDTV.x264-KILLERS [eztv]
View Torrent Info: Killjoys S03E04 HDTV x264-SVA [eztv]
View Torrent Info: Power 2014 S04E05 Dont Thank Me AHDTV x264-CRiMSON [eztv]
ExtraTorrent.ag > Categories > Movies torrents > HEVC/x265 torrents


Browse Movies torrents

Harry Potter and the Sorcerer's Stone 2001 1080p Bluray x265 AAC 5.1 - GetSchwifty torrent


Download torrent: Download Harry Potter and the Sorcerer's Stone 2001 1080p Bluray x265 AAC 5.1 - GetSchwifty torrent Magnet link Bookmark Torrent: Harry Potter and the Sorcerer's Stone 2001 1080p Bluray x265 AAC 5.1 - GetSchwifty Harry Potter and the Sorcerer's Stone 2001 1080p Bluray x265 AAC 5.1 - GetSchwifty torrent | if not working, try instead: Magnet Link
Info hash: AC0AD6AD26CF95D8A0BB0D27E2352C1554503EA1
Category: Categories > Movies torrents > HEVC/x265 torrents
Trackers:
7    View all torrent trackers >
Health:
 seeds: 532 ,  leechers: 43 |  Update >
Torrent language:  
Total Size: 2.70 GB
Torrent status: Added by trusted uploader Added by trusted uploader Trusted Uploader Site Friend Superman Sun
Uploader: Trusted Uploader Site Friend Superman Sun
Torrent added: 2017-07-17 10:29:04
 

Download Harry Potter and the Sorcerer's Stone 2001 1080p Bluray x265 AAC 5.1 - GetSchwifty torrent if not working, try downloading torrent using Download Harry Potter and the Sorcerer's Stone 2001 1080p Bluray x265 AAC 5.1 - GetSchwifty via Magnet Link




Torrent Description

Source File:

Harry Potter and the Sorcerer's Stone 2001 Ultimate Extended Edition 1080p Blu-ray Multisub Remux VC-1 DTS-HD MA 5.1 - KRaLiMaRKo



Media Information:


Code:

General
Unique ID : 175064434839594366279504909504537515975 (0x83B42F08A211445F8AAEF7C10E6957C7)
Complete name : G:\Encode\harry1\Harry Potter And The Sorcerer's Stone 2001 1080p Bluray x265 AAC 5.1 - GetSchwifty.mkv
Format : Matroska
Format version : Version 4 / Version 2
File size : 2.66 GiB
Duration : 2 h 38 min
Overall bit rate : 2 401 kb/s
Movie name : Harry Potter And The Sorcerer's Stone
Encoded date : UTC 2017-07-03 14:13:24
Writing application : mkvmerge v11.0.0 ('Alive') 64bit
Writing library : libebml v1.3.4 + libmatroska v1.4.5

Video
ID : 1
Format : HEVC
Format/Info : High Efficiency Video Coding
Format profile : Main [email protected]@Main
Codec ID : V_MPEGH/ISO/HEVC
Duration : 2 h 38 min
Bit rate : 2 011 kb/s
Width : 1 920 pixels
Height : 784 pixels
Display aspect ratio : 2.40:1
Frame rate mode : Constant
Frame rate : 23.976 (24000/1001) FPS
Color space : YUV
Chroma subsampling : 4:2:0
Bit depth : 10 bits
Bits/(Pixel*Frame) : 0.056
Stream size : 2.23 GiB (84%)
Writing library : x265 2.4+26-355cf3582263:[Windows][GCC 5.3.1][64 bit] 10bit
Encoding settings : cpuid=1050111 / frame-threads=3 / numa-pools=8 / wpp / no-pmode / no-pme / no-psnr / no-ssim / log-level=2 / input-csp=1 / input-res=1920x784 / interlace=0 / total-frames=228505 / level-idc=0 / high-tier=1 / uhd-bd=0 / ref=5 / no-allow-non-conformance / no-repeat-headers / annexb / no-aud / no-hrd / info / hash=0 / no-temporal-layers / open-gop / min-keyint=23 / keyint=250 / bframes=8 / b-adapt=2 / b-pyramid / bframe-bias=0 / rc-lookahead=80 / lookahead-slices=4 / scenecut=40 / no-intra-refresh / ctu=64 / min-cu-size=8 / no-rect / no-amp / max-tu-size=32 / tu-inter-depth=1 / tu-intra-depth=1 / limit-tu=0 / rdoq-level=0 / dynamic-rd=0.00 / no-ssim-rd / signhide / no-tskip / nr-intra=0 / nr-inter=0 / no-constrained-intra / strong-intra-smoothing / max-merge=3 / limit-refs=3 / limit-modes / me=3 / subme=5 / merange=57 / temporal-mvp / weightp / weightb / no-analyze-src-pics / deblock=0:0 / sao / no-sao-non-deblock / rd=3 / no-early-skip / rskip / no-fast-intra / no-tskip-fast / no-cu-lossless / no-b-intra / rdpenalty=0 / psy-rd=0.30 / psy-rdoq=0.00 / no-rd-refine / analysis-mode=0 / no-lossless / cbqpoffs=0 / crqpoffs=0 / rc=abr / bitrate=2011 / qcomp=0.60 / qpstep=4 / stats-write=0 / stats-read=2 / cplxblur=20.0 / qblur=0.5 / ipratio=1.40 / pbratio=1.30 / aq-mode=3 / aq-strength=1.00 / cutree / zone-count=0 / no-strict-cbr / qg-size=32 / no-rc-grain / qpmax=69 / qpmin=0 / sar=0 / overscan=0 / videoformat=5 / range=0 / colorprim=2 / transfer=2 / colormatrix=2 / chromaloc=0 / display-window=0 / max-cll=0,0 / min-luma=0 / max-luma=1023 / log2-max-poc-lsb=8 / vui-timing-info / vui-hrd-info / slices=1 / opt-qp-pps / opt-ref-list-length-pps / no-multi-pass-opt-rps / scenecut-bias=0.05 / no-opt-cu-delta-qp / aq-motion / no-hdr / no-hdr-opt / no-dhdr10-opt / refine-level=5 / no-limit-sao / ctu-info=0
Default : Yes
Forced : No

Audio
ID : 2
Format : AAC
Format/Info : Advanced Audio Codec
Format profile : LC
Codec ID : A_AAC
Duration : 2 h 38 min
Bit rate : 327 kb/s
Channel(s) : 6 channels
Channel positions : Front: L C R, Side: L R, LFE
Sampling rate : 48.0 kHz
Frame rate : 46.875 FPS (1024 spf)
Compression mode : Lossy
Delay relative to video : 9 ms
Stream size : 372 MiB (14%)
Title : English (AAC)
Language : English
Default : Yes
Forced : No

Text #1
ID : 3
Format : PGS
Muxing mode : zlib
Codec ID : S_HDMV/PGS
Codec ID/Info : Picture based subtitle format used on BDs/HD-DVDs
Duration : 2 h 37 min
Bit rate : 10.3 kb/s
Count of elements : 2778
Stream size : 11.6 MiB (0%)
Title : SDH
Language : English
Default : No
Forced : No

Text #2
ID : 4
Format : PGS
Muxing mode : zlib
Codec ID : S_HDMV/PGS
Codec ID/Info : Picture based subtitle format used on BDs/HD-DVDs
Duration : 2 h 38 min
Bit rate : 8 249 b/s
Count of elements : 2204
Stream size : 9.35 MiB (0%)
Language : Dutch
Default : No
Forced : No

Text #3
ID : 5
Format : PGS
Muxing mode : zlib
Codec ID : S_HDMV/PGS
Codec ID/Info : Picture based subtitle format used on BDs/HD-DVDs
Duration : 2 h 37 min
Bit rate : 9 184 b/s
Count of elements : 3014
Stream size : 10.3 MiB (0%)
Language : French
Default : No
Forced : No

Text #4
ID : 6
Format : PGS
Muxing mode : zlib
Codec ID : S_HDMV/PGS
Codec ID/Info : Picture based subtitle format used on BDs/HD-DVDs
Duration : 2 h 38 min
Bit rate : 11.0 kb/s
Count of elements : 2650
Stream size : 12.5 MiB (0%)
Language : German
Default : No
Forced : No

Text #5
ID : 7
Format : PGS
Muxing mode : zlib
Codec ID : S_HDMV/PGS
Codec ID/Info : Picture based subtitle format used on BDs/HD-DVDs
Duration : 2 h 37 min
Bit rate : 10.3 kb/s
Count of elements : 2644
Stream size : 11.6 MiB (0%)
Language : Italian
Default : No
Forced : No

Text #6
ID : 8
Format : PGS
Muxing mode : zlib
Codec ID : S_HDMV/PGS
Codec ID/Info : Picture based subtitle format used on BDs/HD-DVDs
Duration : 2 h 37 min
Bit rate : 10.9 kb/s
Count of elements : 2906
Stream size : 12.3 MiB (0%)
Title : Latin American
Language : Spanish
Default : No
Forced : No

Menu
00:00:00.000 : en:Doorstep Delivery
00:04:05.412 : en:Vanishing Glass
00:08:11.449 : en:Letters From No One
00:13:41.821 : en:Keeper of the Keys
00:19:49.188 : en:Diagon Alley
00:23:42.296 : en:Gringotts
00:26:40.307 : en:Ollivanders
00:30:48.138 : en:The Boy Who Lived
00:33:03.857 : en:Platform 9 3/4
00:36:04.204 : en:Ron and Hermione
00:39:48.261 : en:Welcome to Hogwarts
00:43:28.105 : en:Sorting Hat
00:48:12.097 : en:Nick and Other Residents
00:52:27.686 : en:Potions and Parcels
00:58:29.381 : en:New Seeker
01:04:20.607 : en:Three-Headed Sentinel
01:07:08.942 : en:Facts and Feathers
01:11:13.186 : en:Mountain Troll
01:17:30.604 : en:Quidditch
01:23:59.242 : en:Interference Overcome
01:27:35.917 : en:Christmas Gift
01:32:13.820 : en:Cloaked in Darkness
01:35:25.011 : en:Mirror of Erised
01:41:18.155 : en:Norbert
01:49:04.079 : en:Forbidden Forest
01:55:34.177 : en:Up to Something
01:59:50.725 : en:Through the Trapdoor
02:04:38.888 : en:Wizards' Chess
02:10:13.973 : en:Sacrifice Play
02:13:25.289 : en:Man with Two Faces
02:17:24.528 : en:Magic Touch
02:20:47.981 : en:Mark of Love
02:23:58.755 : en:House Cup Winner
02:28:13.843 : en:Not Really Going Home
02:30:41.699 : en:Credits



#GetSchwifty -> To avoid fakes, ALWAYS check that the torrent was added on ExtraTorrent.ag by GetSchwifty

https://extratorrent.ag/



Download Harry Potter and the Sorcerer's Stone 2001 1080p Bluray x265 AAC 5.1 - GetSchwifty torrent


Comments (please add your comment)
1
posted by ichiro98 (2017-07-17 11:32:46)
ichiro98 avatar Thank you.


2
posted by riselift (2017-07-17 11:58:05)
riselift avatar Glad to see you upload here ! If only you could use DTS audio codec ! it would be even better ! cheers GetSchwifty Quality share as always!


3
posted by khattak (2017-07-18 09:27:25)
khattak avatar i would recommend to allow users upload stuff to this site.. this is only way to make it successful ...





Home - Browse Torrents - Upload Torrent - Stat - Forum - FAQ - Login
ExtraTorrent.ag is in compliance with copyrights
2006-2017 ExtraTorrent.ag